Die Another Day 2002 x264 720p Esub BluRay Dual Audio English Hindi GOPI SAHI

Die Another Day (2002)



James Bond is sent to investigate the connection between a North Korean terrorist and a diamond mogul, who is funding the development of an international space weapon.
EN

Director:

Lee Tamahori

Writers:

Ian Fleming (characters), Neal Purvis | 1 more credit »

6.1/10

Directed byLee Tamahori
Produced by
Written by
Based onJames Bond
by Ian Fleming
Starring
Music byDavid Arnold
CinematographyDavid Tattersall
Edited byChristian Wagner
Production
company
Distributed byMetro-Goldwyn-Mayer (United States)
20th Century Fox (International)
Release date
  • 20 November 2002 (United Kingdom)
  • 22 November 2002 (United States)
Running time
133 minutes
CountryUnited Kingdom
United States
LanguageEnglish
Budget$142 million[1]
Box office$431.9 million[1]



Die Another Day 2002 GOPI SAHI

Format                         : Matroska
Format version                 : Version 4
File size                      : 1.02 GiB
Duration                       : 2 h 12 min
Overall bit rate               : 1 104 kb/s
Movie name                     : Die Another Day 2002 GOPI SAHI
Encoded date                   : UTC 2020-09-16 10:28:51

Video
ID                             : 1
Format                         : AVC
Format/Info                    : Advanced Video Codec
Format profile                 : [email protected]
Format settings                : CABAC / 5 Ref Frames
Format settings, CABAC         : Yes
Format settings, Reference fra : 5 frames
Codec ID                       : V_MPEG4/ISO/AVC
Duration                       : 2 h 12 min
Bit rate                       : 899 kb/s
Width                          : 1 280 pixels
Height                         : 536 pixels
Display aspect ratio           : 2.40:1
Frame rate mode                : Constant
Frame rate                     : 23.976 (24000/1001) FPS
Color space                    : YUV
Chroma subsampling             : 4:2:0
Bit depth                      : 8 bits
Scan type                      : Progressive
Bits/(Pixel*Frame)             : 0.055
Stream size                    : 852 MiB (81%)
Title                          : GOPI SAHI
Writing library                : x264 core 157 r2935 545de2f

Audio #1
ID                             : 2
Format                         : AAC LC
Format/Info                    : Advanced Audio Codec Low Complexity
Codec ID                       : A_AAC-2
Duration                       : 2 h 12 min
Bit rate                       : 96.0 kb/s
Channel(s)                     : 2 channels
Channel layout                 : L R
Sampling rate                  : 48.0 kHz
Frame rate                     : 46.875 FPS (1024 SPF)
Compression mode               : Lossy
Delay relative to video        : -21 ms
Stream size                    : 91.3 MiB (9%)
Title                          : GOPI SAHI
Language                       : Hindi
Default                        : Yes
Forced                         : No

Audio #2
ID                             : 3
Format                         : AAC LC
Format/Info                    : Advanced Audio Codec Low Complexity
Codec ID                       : A_AAC-2
Duration                       : 2 h 12 min
Bit rate                       : 96.0 kb/s
Channel(s)                     : 2 channels
Channel layout                 : L R
Sampling rate                  : 48.0 kHz
Frame rate                     : 46.875 FPS (1024 SPF)
Compression mode               : Lossy
Delay relative to video        : -21 ms
Stream size                    : 91.4 MiB (9%)
Title                          : GOPI SAHI
Language                       : English
Default                        : No
Forced                         : No

Text #1
ID                             : 4
Format                         : PGS
Muxing mode                    : zlib
Codec ID                       : S_HDMV/PGS
Codec ID/Info                  : Picture based subtitle format used on BDs/HD-DVDs
Duration                       : 2 h 7 min
Bit rate                       : 10.8 kb/s
Count of elements              : 1741
Stream size                    : 9.86 MiB (1%)
Title                          : GOPI SAHI
Language                       : Hindi
Default                        : Yes
Forced                         : Yes

Text #2
ID                             : 5
Format                         : PGS
Muxing mode                    : zlib
Codec ID                       : S_HDMV/PGS
Codec ID/Info                  : Picture based subtitle format used on BDs/HD-DVDs
Duration                       : 2 h 5 min
Bit rate                       : 19.5 kb/s
Count of elements              : 1642
Stream size                    : 17.5 MiB (2%)
Title                          : GOPI SAHI
Language                       : English
Default                        : No
Forced                         : No

Menu
00:00:00.000                   : :The Surfer Has Landed
00:09:28.151                   : :Like a Hovercraft on Fire
00:13:15.962                   : :Main Title/Torture
00:16:41.167                   : :Anger Management
00:22:19.797                   : :The Diamond Trade
00:27:32.401                   : :A Bridge Between Worlds
00:30:59.608                   : :Unwelcome Back
00:34:35.824                   : :A Heartbeat From Luxury
00:39:47.010                   : :Massaging a Deal
00:43:35.822                   : :Slow-Burning Cuban
00:48:40.918                   : :A Wonderful View
00:50:01.582                   : :Wheelchair Accessible
00:52:21.972                   : :The Dna Artist's Suffering
00:59:20.640                   : :Radical Makeover
01:00:13.276                   : :London Calling
01:03:00.235                   : :Serious Swordplay
01:08:23.433                   : :Best Kept Underground
01:11:07.597                   : :Q's Cutting Edge
01:13:52.219                   : :A Frosty Assessment
01:19:23.801                   : :Ice Palace of Dreams
01:21:33.305                   : :"He Knows Nothing"
01:26:55.711                   : :"Like a Diamond in the Sky"
01:31:25.772                   : :Intruder Alert!
01:35:07.619                   : :In Bed/in Traction
01:39:53.571                   : :Laser Surgery
01:44:56.248                   : :Double-Cross
01:49:43.118                   : :Fire on Ice
01:55:49.276                   : :In Cold Pursuit
02:01:52.388                   : :Chase Against Time
02:05:08.251                   : :Headfirst Into North Korea
02:06:58.694                   : :Like Father, Unlike Son
02:08:26.782                   : :Face-Off Under Pressure