For Greater Glory - The True Story Of Cristiada 2012 x264 720p Esub BluRay Dual Audio English Hindi GOPI SAHI

For Greater Glory: The True Story of Cristiada (2012)

R | | Drama, History, War | 1 June 2012 (USA) 
A chronicle of the Cristeros War (1926-1929); a war by the people of Mexico against the atheistic Mexican government.
EN

Director:

Dean Wright

Writer:

Michael Love

6.6/10
4,502
Directed byDean Wright
Produced byPablo Jose Barroso
Written byMichael James Love
StarringAndy García
Oscar Isaac
Catalina Sandino Moreno
Santiago Cabrera
Rubén Blades
Bruce McGill
Adrian Alonso
Eva Longoria
Peter O'Toole
Music byJames Horner
CinematographyEduardo Martinez Solares
Edited byRichard Francis-Bruce
Mike Jackson
Production
company
NewLand Films
Distributed byARC Entertainment
20th Century Fox
Release date
  • April 20, 2012
Running time
145 minutes
CountryMexico
LanguageEnglish
Budget$12 million
Box office$10,353,194



For Greater Glory - The True Story Of Cristiada 2012 x264 720p Esub BluRay Dual Audio English Hindi GOPI SAHI

Format                         : Matroska
Format version                 : Version 4
File size                      : 1.11 GiB
Duration                       : 2 h 25 min
Overall bit rate               : 1 095 kb/s
Movie name                     : For Greater Glory : The True Story Of Cristiada 2012 GOPI SAHI
Encoded date                   : UTC 2020-09-28 08:01:45

Video
ID                             : 1
Format                         : AVC
Format/Info                    : Advanced Video Codec
Format profile                 : [email protected]
Format settings                : CABAC / 5 Ref Frames
Format settings, CABAC         : Yes
Format settings, Reference fra : 5 frames
Codec ID                       : V_MPEG4/ISO/AVC
Duration                       : 2 h 25 min
Bit rate                       : 899 kb/s
Width                          : 1 280 pixels
Height                         : 528 pixels
Display aspect ratio           : 2.40:1
Frame rate mode                : Constant
Frame rate                     : 23.976 (24000/1001) FPS
Color space                    : YUV
Chroma subsampling             : 4:2:0
Bit depth                      : 8 bits
Scan type                      : Progressive
Bits/(Pixel*Frame)             : 0.055
Stream size                    : 935 MiB (82%)
Title                          : GOPI SAHI
Writing library                : x264 core 157 r2935 545de2f

Audio #1
ID                             : 2
Format                         : AAC LC
Format/Info                    : Advanced Audio Codec Low Complexity
Codec ID                       : A_AAC-2
Duration                       : 2 h 25 min
Bit rate                       : 96.0 kb/s
Channel(s)                     : 2 channels
Channel layout                 : L R
Sampling rate                  : 48.0 kHz
Frame rate                     : 46.875 FPS (1024 SPF)
Compression mode               : Lossy
Delay relative to video        : -21 ms
Stream size                    : 100 MiB (9%)
Title                          : GOPI SAHI
Language                       : Hindi
Default                        : Yes
Forced                         : No

Audio #2
ID                             : 3
Format                         : AAC LC
Format/Info                    : Advanced Audio Codec Low Complexity
Codec ID                       : A_AAC-2
Duration                       : 2 h 25 min
Bit rate                       : 96.0 kb/s
Channel(s)                     : 2 channels
Channel layout                 : L R
Sampling rate                  : 48.0 kHz
Frame rate                     : 46.875 FPS (1024 SPF)
Compression mode               : Lossy
Delay relative to video        : -21 ms
Stream size                    : 100 MiB (9%)
Title                          : GOPI SAHI
Language                       : English
Default                        : No
Forced                         : No

Text
ID                             : 4
Format                         : UTF-8
Codec ID                       : S_TEXT/UTF8
Codec ID/Info                  : UTF-8 Plain Text
Duration                       : 2 h 23 min
Bit rate                       : 39 b/s
Count of elements              : 1616
Stream size                    : 42.0 KiB (0%)
Title                          : GOPI SAHI
Language                       : English
Default                        : Yes
Forced                         : No




Post a Comment

0 Comments