Freddy vs. Jason 2003 x264 720p Esub BluRay Dual Audio English Hindi GOPI SAHI

Freddy vs. Jason (2003)


Freddy Krueger and Jason Voorhees return to terrorize the teenage population. Except this time, they're out to get each other, too.
EN

Director:

Ronny Yu

Writers:

Wes Craven (characters), Victor Miller (characters) | 2 more credits »

5.7/10
108,850

Directed byRonny Yu
Produced by
Written byDamian Shannon
Mark Swift
Based on
Characters
by
Starring
Music byGraeme Revell
CinematographyFred Murphy
Edited byMark Stevens
Production
company
Distributed byNew Line Cinema
Release date
  • August 15, 2003
Running time
98 minutes[1]
CountryUnited States
LanguageEnglish
Budget$30 million[1]
Box office$116.6 million[1]

Format                         : Matroska
Format version                 : Version 4
File size                      : 770 MiB
Duration                       : 1 h 37 min
Overall bit rate               : 1 106 kb/s
Movie name                     : Freddy vs. Jason 2003 GOPI SAHI
Encoded date                   : UTC 2020-09-15 14:10:51

Video
ID                             : 1
Format                         : AVC
Format/Info                    : Advanced Video Codec
Format profile                 : [email protected]
Format settings                : CABAC / 5 Ref Frames
Format settings, CABAC         : Yes
Format settings, Reference fra : 5 frames
Codec ID                       : V_MPEG4/ISO/AVC
Duration                       : 1 h 37 min
Bit rate                       : 899 kb/s
Width                          : 1 280 pixels
Height                         : 542 pixels
Display aspect ratio           : 2.35:1
Frame rate mode                : Constant
Frame rate                     : 23.976 (24000/1001) FPS
Color space                    : YUV
Chroma subsampling             : 4:2:0
Bit depth                      : 8 bits
Scan type                      : Progressive
Bits/(Pixel*Frame)             : 0.054
Stream size                    : 626 MiB (81%)
Title                          : GOPI SAHI
Writing library                : x264 core 157 r2935 545de2f

Audio #1
ID                             : 2
Format                         : AAC LC
Format/Info                    : Advanced Audio Codec Low Complexity
Codec ID                       : A_AAC-2
Duration                       : 1 h 37 min
Bit rate                       : 96.0 kb/s
Channel(s)                     : 2 channels
Channel layout                 : L R
Sampling rate                  : 48.0 kHz
Frame rate                     : 46.875 FPS (1024 SPF)
Compression mode               : Lossy
Delay relative to video        : -21 ms
Stream size                    : 67.2 MiB (9%)
Title                          : GOPI SAHI
Language                       : Hindi
Default                        : Yes
Forced                         : No

Audio #2
ID                             : 3
Format                         : AAC LC
Format/Info                    : Advanced Audio Codec Low Complexity
Codec ID                       : A_AAC-2
Duration                       : 1 h 37 min
Bit rate                       : 96.0 kb/s
Channel(s)                     : 2 channels
Channel layout                 : L R
Sampling rate                  : 48.0 kHz
Frame rate                     : 46.875 FPS (1024 SPF)
Compression mode               : Lossy
Delay relative to video        : -21 ms
Stream size                    : 67.2 MiB (9%)
Title                          : GOPI SAHI
Language                       : English
Default                        : No
Forced                         : No

Text
ID                             : 4
Format                         : PGS
Muxing mode                    : zlib
Codec ID                       : S_HDMV/PGS
Codec ID/Info                  : Picture based subtitle format used on BDs/HD-DVDs
Duration                       : 1 h 36 min
Bit rate                       : 27.6 kb/s
Count of elements              : 2004
Stream size                    : 19.1 MiB (2%)
Title                          : GOPI SAHI
Language                       : English
Default                        : Yes
Forced                         : Yes

Menu
00:00:00.000                   : en:Freddy's Children
00:02:56.175                   : en:Late Night Swim
00:06:37.105                   : en:Welcome to Elm Street
00:14:42.047                   : en:"Freddy's Coming Back!"
00:20:32.105                   : en:Institutionalized
00:23:56.685                   : en:Back to School
00:33:25.712                   : en:Life and Death of the Party
00:43:58.802                   : en:Sins of the Father
00:48:52.971                   : en:Brother's Keeper
00:52:14.756                   : en:Two Killers
00:57:52.427                   : en:Back to Westin Hills
01:04:04.257                   : en:"Welcome to my nightmare!"
01:07:46.187                   : en:Return to Crystal Lake
01:17:09.666                   : en:Home Field Advantage
01:21:04.776                   : en:One on One
01:26:43.615                   : en:Final Blows
01:30:14.409                   : en:End Credits