Gangs of New York 2002 x264 720p Esub BluRay Dual Audio English Hindi GOPI SAHI

Gangs of New York (2002)



In 1862, Amsterdam Vallon returns to the Five Points area of New York City seeking revenge against Bill the Butcher, his father's killer.
EN

Director:

Martin Scorsese

Writers:

Jay Cocks (story), Jay Cocks (screenplay) | 2 more credits »

7.5/10
397,790

Directed byMartin Scorsese
Produced by
Screenplay by
Story byJay Cocks
Based onThe Gangs of New York
by Herbert Asbury
Starring
Music byHoward Shore
CinematographyMichael Ballhaus
Edited byThelma Schoonmaker
Production
company
Distributed by
Release date
  • December 20, 2002
Running time
167 minutes[1]
CountryUnited States
LanguageEnglish
Budget$100 million[2]
Box office$193.8 million[2]



Gangs of New York 2002 x264 720p Esub BluRay Dual Audio English Hindi GOPI SAHI

Format                         : Matroska
Format version                 : Version 4
File size                      : 1.28 GiB
Duration                       : 2 h 46 min
Overall bit rate               : 1 103 kb/s
Movie name                     : Gangs of New York 2002 GOPI SAHI
Encoded date                   : UTC 2020-09-19 15:28:11

Video
ID                             : 1
Format                         : AVC
Format/Info                    : Advanced Video Codec
Format profile                 : [email protected]
Format settings                : CABAC / 5 Ref Frames
Format settings, CABAC         : Yes
Format settings, Reference fra : 5 frames
Codec ID                       : V_MPEG4/ISO/AVC
Duration                       : 2 h 46 min
Bit rate                       : 899 kb/s
Width                          : 1 280 pixels
Height                         : 546 pixels
Display aspect ratio           : 2.35:1
Frame rate mode                : Constant
Frame rate                     : 23.976 (24000/1001) FPS
Color space                    : YUV
Chroma subsampling             : 4:2:0
Bit depth                      : 8 bits
Scan type                      : Progressive
Bits/(Pixel*Frame)             : 0.054
Stream size                    : 1.05 GiB (81%)
Title                          : GOPI SAHI
Writing library                : x264 core 157 r2935 545de2f

Audio #1
ID                             : 2
Format                         : AAC LC
Format/Info                    : Advanced Audio Codec Low Complexity
Codec ID                       : A_AAC-2
Duration                       : 2 h 46 min
Bit rate                       : 96.0 kb/s
Channel(s)                     : 2 channels
Channel layout                 : L R
Sampling rate                  : 44.1 kHz
Frame rate                     : 43.066 FPS (1024 SPF)
Compression mode               : Lossy
Delay relative to video        : -13 ms
Stream size                    : 115 MiB (9%)
Title                          : GOPI SAHI
Language                       : Hindi
Default                        : Yes
Forced                         : No

Audio #2
ID                             : 3
Format                         : AAC LC
Format/Info                    : Advanced Audio Codec Low Complexity
Codec ID                       : A_AAC-2
Duration                       : 2 h 46 min
Bit rate                       : 96.0 kb/s
Channel(s)                     : 2 channels
Channel layout                 : L R
Sampling rate                  : 48.0 kHz
Frame rate                     : 46.875 FPS (1024 SPF)
Compression mode               : Lossy
Delay relative to video        : -21 ms
Stream size                    : 115 MiB (9%)
Title                          : GOPI SAHI
Language                       : English
Default                        : No
Forced                         : No

Text
ID                             : 4
Format                         : PGS
Muxing mode                    : zlib
Codec ID                       : S_HDMV/PGS
Codec ID/Info                  : Picture based subtitle format used on BDs/HD-DVDs
Duration                       : 2 h 36 min
Bit rate                       : 32.1 kb/s
Count of elements              : 3629
Stream size                    : 35.9 MiB (3%)
Title                          : GOPI SAHI
Language                       : English
Default                        : Yes
Forced                         : Yes

Menu
00:00:00.000                   : :Chapter 1
00:15:05.488                   : :Chapter 2
00:23:36.457                   : :Chapter 3
00:27:42.202                   : :Chapter 4
00:33:19.164                   : :Chapter 5
00:38:42.195                   : :Chapter 6
00:45:58.547                   : :Chapter 7
00:52:46.955                   : :Chapter 8
01:01:38.862                   : :Chapter 9
01:10:29.809                   : :Chapter 10
01:20:44.798                   : :Chapter 11
01:25:13.150                   : :Chapter 12
01:33:23.264                   : :Chapter 13
01:36:43.464                   : :Chapter 14
01:43:20.778                   : :Chapter 15
01:47:37.534                   : :Chapter 16
01:54:25.692                   : :Chapter 17
02:00:58.543                   : :Chapter 18
02:07:01.114                   : :Chapter 19
02:12:27.606                   : :Chapter 20
02:18:03.776                   : :Chapter 21
02:22:59.738                   : :Chapter 22
02:29:22.245                   : :Chapter 23
02:37:53.464                   : :Chapter 24