I Spit on Your Grave 1978 Director's Cut x264 720p Esub BluRay Dual Audio English Hindi GOPI SAHI

I Spit on Your Grave (1978)

Day of the Woman (original title)

An aspiring writer is repeatedly gang-raped, humiliated, and left for dead by four men whom she systematically hunts down to seek revenge.
EN

Director:

Meir Zarchi

Writer:

Meir Zarchi

5.7/10
25,426

Directed byMeir Zarchi
Produced byJoseph Zbeda
Written byMeir Zarchi
Starring
CinematographyYuri Haviv
Edited byMeir Zarchi
Production
company
Cinemagic Pictures
Distributed byThe Jerry Gross Organization
Release date
  • November 22, 1978
Running time
102 minutes[1]
CountryUnited States
LanguageEnglish
Budget$1.5 million[2]



I Spit on Your Grave 1978 Director's Cut x264 720p Esub BluRay Dual Audio English Hindi GOPI SAHI

Format                         : Matroska
Format version                 : Version 4
File size                      : 798 MiB
Duration                       : 1 h 41 min
Overall bit rate               : 1 102 kb/s
Movie name                     : I Spit on Your Grave 1978 Director's Cut GOPI SAHI

Video
ID                             : 1
Format                         : AVC
Format/Info                    : Advanced Video Codec
Format profile                 : [email protected]
Format settings                : CABAC / 5 Ref Frames
Format settings, CABAC         : Yes
Format settings, Reference fra : 5 frames
Codec ID                       : V_MPEG4/ISO/AVC
Duration                       : 1 h 41 min
Bit rate                       : 899 kb/s
Width                          : 1 280 pixels
Height                         : 720 pixels
Display aspect ratio           : 16:9
Frame rate mode                : Constant
Frame rate                     : 23.976 (24000/1001) FPS
Color space                    : YUV
Chroma subsampling             : 4:2:0
Bit depth                      : 8 bits
Scan type                      : Progressive
Bits/(Pixel*Frame)             : 0.041
Stream size                    : 651 MiB (82%)
Title                          : GOPI SAHI
Writing library                : x264 core 157 r2935 545de2f

Audio #1
ID                             : 2
Format                         : AAC LC
Format/Info                    : Advanced Audio Codec Low Complexity
Codec ID                       : A_AAC-2
Duration                       : 1 h 41 min
Bit rate                       : 96.0 kb/s
Channel(s)                     : 2 channels
Channel layout                 : L R
Sampling rate                  : 48.0 kHz
Frame rate                     : 46.875 FPS (1024 SPF)
Compression mode               : Lossy
Delay relative to video        : -21 ms
Stream size                    : 69.9 MiB (9%)
Title                          : GOPI SAHI
Language                       : Hindi
Default                        : Yes
Forced                         : No

Audio #2
ID                             : 3
Format                         : AAC LC
Format/Info                    : Advanced Audio Codec Low Complexity
Codec ID                       : A_AAC-2
Duration                       : 1 h 41 min
Bit rate                       : 96.0 kb/s
Channel(s)                     : 2 channels
Channel layout                 : L R
Sampling rate                  : 48.0 kHz
Frame rate                     : 46.875 FPS (1024 SPF)
Compression mode               : Lossy
Delay relative to video        : -21 ms
Stream size                    : 69.8 MiB (9%)
Title                          : GOPI SAHI
Language                       : English
Default                        : No
Forced                         : No

Text
ID                             : 4
Format                         : PGS
Muxing mode                    : zlib
Codec ID                       : S_HDMV/PGS
Codec ID/Info                  : Picture based subtitle format used on BDs/HD-DVDs
Duration                       : 1 h 40 min
Bit rate                       : 23.8 kb/s
Count of elements              : 1700
Stream size                    : 17.1 MiB (2%)
Title                          : GOPI SAHI
Language                       : English
Default                        : Yes
Forced                         : Yes

Menu
00:00:00.000                   : :Main Titles
00:03:01.765                   : :Writer's Retreat
00:10:42.183                   : :"A Special Broad"
00:17:03.689                   : :Tranquility Shattered
00:23:17.730                   : :Violated
00:28:24.244                   : :Assaulted
00:39:02.048                   : :Defiled
00:52:33.734                   : :"It's Been Two Weeks, Man!"
01:03:28.763                   : :A Summer To Remember
01:17:56.380                   : :A Hot Bath
01:30:55.533                   : :Day Of The Woman
01:39:57.283                   : :End Credits







Post a Comment

0 Comments