Man Of Tai Chi 2013 x264 720p Esub BluRay Dual Audio English Hindi GOPI SAHI

Man of Tai Chi (2013)

R | | Action, Drama | 5 July 2013 (China)

A young martial artist's unparalleled Tai Chi skills land him in a highly lucrative underworld fight club.
EN

Director:

Keanu Reeves

6.1/10
34,901

Directed byKeanu Reeves
Produced byLemore Syvan
Daxing Zhang
Written byMichael G. Cooney
StarringKeanu Reeves
Tiger Chen
Iko Uwais
Karen Mok
Simon Yam
Music byChan Kwong-wing
CinematographyElliot Davis
Edited byDerek Hui
Production
company
Distributed byUnited States:
RADiUS-TWC
Australia/New Zealand/Singapore:
Roadshow Entertainment
China:
China Film Group
Wanda Media
International:
Universal Pictures
Release date
  • 5 July 2013 (China)
  • 1 November 2013 (United States)
Running time
105 minutes
CountryChina
United States
LanguageMandarin
English
Cantonese[1]
BudgetUS$25 million[2]
Box officeUS$5.5 million[3]



Man Of Tai Chi 2013 x264 720p Esub BluRay Dual Audio English Hindi GOPI SAHI
Format                         : Matroska
Format version                 : Version 4
File size                      : 831 MiB
Duration                       : 1 h 45 min
Overall bit rate               : 1 103 kb/s
Movie name                     : Man Of Tai Chi 2013 GOPI SAHI
Encoded date                   : UTC 2020-09-05 05:00:50

Video
ID                             : 1
Format                         : AVC
Format/Info                    : Advanced Video Codec
Format profile                 : [email protected]
Format settings                : CABAC / 5 Ref Frames
Format settings, CABAC         : Yes
Format settings, Reference fra : 5 frames
Codec ID                       : V_MPEG4/ISO/AVC
Duration                       : 1 h 45 min
Bit rate                       : 899 kb/s
Width                          : 1 280 pixels
Height                         : 532 pixels
Display aspect ratio           : 2.40:1
Frame rate mode                : Constant
Frame rate                     : 23.976 (24000/1001) FPS
Color space                    : YUV
Chroma subsampling             : 4:2:0
Bit depth                      : 8 bits
Scan type                      : Progressive
Bits/(Pixel*Frame)             : 0.055
Stream size                    : 676 MiB (81%)
Title                          : GOPI SAHI
Writing library                : x264 core 157 r2935 545de2f

Audio #1
ID                             : 2
Format                         : AAC LC
Format/Info                    : Advanced Audio Codec Low Complexity
Codec ID                       : A_AAC-2
Duration                       : 1 h 45 min
Bit rate                       : 96.0 kb/s
Channel(s)                     : 2 channels
Channel layout                 : L R
Sampling rate                  : 48.0 kHz
Frame rate                     : 46.875 FPS (1024 SPF)
Compression mode               : Lossy
Delay relative to video        : -5 ms
Stream size                    : 72.4 MiB (9%)
Title                          : GOPI SAHI
Language                       : Hindi
Default                        : Yes
Forced                         : No

Audio #2
ID                             : 3
Format                         : AAC LC
Format/Info                    : Advanced Audio Codec Low Complexity
Codec ID                       : A_AAC-2
Duration                       : 1 h 45 min
Bit rate                       : 96.0 kb/s
Channel(s)                     : 2 channels
Channel layout                 : L R
Sampling rate                  : 48.0 kHz
Frame rate                     : 46.875 FPS (1024 SPF)
Compression mode               : Lossy
Delay relative to video        : -21 ms
Stream size                    : 72.3 MiB (9%)
Title                          : GOPI SAHI
Language                       : English
Default                        : No
Forced                         : No

Text #1
ID                             : 4
Format                         : PGS
Muxing mode                    : zlib
Codec ID                       : S_HDMV/PGS
Codec ID/Info                  : Picture based subtitle format used on BDs/HD-DVDs
Duration                       : 1 h 43 min
Bit rate                       : 21.1 kb/s
Count of elements              : 1889
Stream size                    : 15.6 MiB (2%)
Title                          : GOPI SAHI
Language                       : English
Default                        : Yes
Forced                         : No

Text #2
ID                             : 5
Format                         : PGS
Muxing mode                    : zlib
Codec ID                       : S_HDMV/PGS
Codec ID/Info                  : Picture based subtitle format used on BDs/HD-DVDs
Duration                       : 1 h 42 min
Bit rate                       : 11.5 kb/s
Count of elements              : 908
Stream size                    : 8.42 MiB (1%)
Title                          : GOPI SAHI
Language                       : English
Default                        : No
Forced                         : No





Post a Comment

0 Comments