Mortal Kombat 1995 x264 720p Esub BluRay Dual Audio English Hindi GOPI SAHI

Mortal Kombat (1995)

Three unknowing martial artists are summoned to a mysterious island to compete in a tournament whose outcome will decide the fate of the world.
EN

Director:

Paul W.S. Anderson (as Paul Anderson)

Writers:

Ed Boon (video games), John Tobias (video games) | 1 more credit »

5.8/10
100,099

Directed byPaul Anderson
Produced byLawrence Kasanoff
Written byKevin Droney
Based onMortal Kombat
by Midway Games
Starring
Music byGeorge S. Clinton
CinematographyJohn R. Leonetti
Edited byMartin Hunter
Production
company
Distributed byNew Line Cinema
Release date
  • August 18, 1995
Running time
101 minutes
CountryUnited States
LanguageEnglish
Budget$18 million
Box office$122.1 million[1]


Mortal Kombat 1995 GOPI SAHI

Format                         : Matroska
Format version                 : Version 4
File size                      : 800 MiB
Duration                       : 1 h 41 min
Overall bit rate               : 1 102 kb/s
Movie name                     : Mortal Kombat 1995 GOPI SAHI
Encoded date                   : UTC 2020-09-27 09:53:26
Attachments                    : Hammer Logo.jpg

Video
ID                             : 1
Format                         : AVC
Format/Info                    : Advanced Video Codec
Format profile                 : [email protected]
Format settings                : CABAC / 5 Ref Frames
Format settings, CABAC         : Yes
Format settings, Reference fra : 5 frames
Codec ID                       : V_MPEG4/ISO/AVC
Duration                       : 1 h 41 min
Bit rate                       : 899 kb/s
Width                          : 1 280 pixels
Height                         : 720 pixels
Display aspect ratio           : 16:9
Frame rate mode                : Constant
Frame rate                     : 23.976 (24000/1001) FPS
Color space                    : YUV
Chroma subsampling             : 4:2:0
Bit depth                      : 8 bits
Scan type                      : Progressive
Bits/(Pixel*Frame)             : 0.041
Stream size                    : 652 MiB (82%)
Title                          : GOPI SAHI
Writing library                : x264 core 157 r2935 545de2f

Audio #1
ID                             : 2
Format                         : AAC LC
Format/Info                    : Advanced Audio Codec Low Complexity
Codec ID                       : A_AAC-2
Duration                       : 1 h 41 min
Bit rate                       : 96.0 kb/s
Channel(s)                     : 2 channels
Channel layout                 : L R
Sampling rate                  : 48.0 kHz
Frame rate                     : 46.875 FPS (1024 SPF)
Compression mode               : Lossy
Delay relative to video        : -21 ms
Stream size                    : 70.0 MiB (9%)
Title                          : GOPI SAHI
Language                       : Hindi
Default                        : Yes
Forced                         : No

Audio #2
ID                             : 3
Format                         : AAC LC
Format/Info                    : Advanced Audio Codec Low Complexity
Codec ID                       : A_AAC-2
Duration                       : 1 h 41 min
Bit rate                       : 96.0 kb/s
Channel(s)                     : 2 channels
Channel layout                 : L R
Sampling rate                  : 48.0 kHz
Frame rate                     : 46.875 FPS (1024 SPF)
Compression mode               : Lossy
Delay relative to video        : -21 ms
Stream size                    : 70.0 MiB (9%)
Title                          : GOPI SAHI
Language                       : English
Default                        : No
Forced                         : No

Text
ID                             : 4
Format                         : PGS
Muxing mode                    : zlib
Codec ID                       : S_HDMV/PGS
Codec ID/Info                  : Picture based subtitle format used on BDs/HD-DVDs
Duration                       : 1 h 40 min
Bit rate                       : 17.5 kb/s
Count of elements              : 1554
Stream size                    : 12.6 MiB (2%)
Title                          : GOPI SAHI
Language                       : English
Default                        : Yes
Forced                         : No





Post a Comment

0 Comments