Mortal Kombat Annihilation 1997 x264 720p Esub BluRay Dual Audio English Hindi GOPI SAHI

Mortal Kombat: Annihilation (1997)

 
A group of martial arts warriors have only six days to save the Earth from an extra-dimensional invasion.
EN

Director:

John R. Leonetti

Writers:

Ed Boon (video games), Lawrence Kasanoff (story) | 4 more credits »

3.7/10
45,989
Directed byJohn R. Leonetti
Produced byLawrence Kasanoff
Screenplay by
Story by
Based onMortal Kombat
by Midway Games
Starring
Music byGeorge S. Clinton
CinematographyMatthew F. Leonetti
Edited byPeck Prior
Production
company
Distributed byNew Line Cinema
Release date
  • November 21, 1997
Running time
95 minutes
CountryUnited States
LanguageEnglish
Budget$30 million[2]
Box office$51.3 million[3]



Mortal Kombat Annihilation 1997 GOPI SAHI

Format                         : Matroska
Format version                 : Version 4
File size                      : 748 MiB
Duration                       : 1 h 35 min
Overall bit rate               : 1 092 kb/s
Movie name                     : Mortal Kombat Annihilation 1997 GOPI SAHI
Encoded date                   : UTC 2020-09-27 10:43:12
Attachments                    : Hammer Logo.jpg

Video
ID                             : 1
Format                         : AVC
Format/Info                    : Advanced Video Codec
Format profile                 : [email protected]
Format settings                : CABAC / 5 Ref Frames
Format settings, CABAC         : Yes
Format settings, Reference fra : 5 frames
Codec ID                       : V_MPEG4/ISO/AVC
Duration                       : 1 h 34 min
Bit rate                       : 899 kb/s
Width                          : 1 280 pixels
Height                         : 720 pixels
Display aspect ratio           : 16:9
Frame rate mode                : Constant
Frame rate                     : 23.976 (24000/1001) FPS
Color space                    : YUV
Chroma subsampling             : 4:2:0
Bit depth                      : 8 bits
Scan type                      : Progressive
Bits/(Pixel*Frame)             : 0.041
Stream size                    : 609 MiB (81%)
Title                          : GOPI SAHI
Writing library                : x264 core 157 r2935 545de2f

Audio #1
ID                             : 2
Format                         : AAC LC
Format/Info                    : Advanced Audio Codec Low Complexity
Codec ID                       : A_AAC-2
Duration                       : 1 h 35 min
Bit rate                       : 96.0 kb/s
Channel(s)                     : 2 channels
Channel layout                 : L R
Sampling rate                  : 48.0 kHz
Frame rate                     : 46.875 FPS (1024 SPF)
Compression mode               : Lossy
Delay relative to video        : -21 ms
Stream size                    : 66.0 MiB (9%)
Title                          : GOPI SAHI
Language                       : Hindi
Default                        : Yes
Forced                         : No

Audio #2
ID                             : 3
Format                         : AAC LC
Format/Info                    : Advanced Audio Codec Low Complexity
Codec ID                       : A_AAC-2
Duration                       : 1 h 34 min
Bit rate                       : 96.0 kb/s
Channel(s)                     : 2 channels
Channel layout                 : L R
Sampling rate                  : 48.0 kHz
Frame rate                     : 46.875 FPS (1024 SPF)
Compression mode               : Lossy
Delay relative to video        : -21 ms
Stream size                    : 65.3 MiB (9%)
Title                          : GOPI SAHI
Language                       : English
Default                        : No
Forced                         : No

Text
ID                             : 4
Format                         : PGS
Muxing mode                    : zlib
Codec ID                       : S_HDMV/PGS
Codec ID/Info                  : Picture based subtitle format used on BDs/HD-DVDs
Duration                       : 1 h 33 min
Bit rate                       : 19.4 kb/s
Count of elements              : 1536
Stream size                    : 13.0 MiB (2%)
Title                          : GOPI SAHI
Language                       : English
Default                        : Yes
Forced                         : No





Post a Comment

0 Comments