A Nightmare on Elm Street 2- Freddy's Revenge 1985 x264 720p Esub BluRay Dual Audio English Hindi GOPI SAHI

A Nightmare on Elm Street 2: Freddy's Revenge (1985)



A Nightmare on Elm Street Part 2: Freddy's Revenge (original title)
R | | Horror | 1 November 1985 (USA)
A teenage boy is haunted in his dreams by deceased child murderer Freddy Krueger, who is out to possess him in order to continue his reign of terror in the real world.
EN

Director:

Jack Sholder

Writers:

David Chaskin, Wes Craven (characters)
5.5/10
59,878

Directed byJack Sholder
Produced byRobert Shaye
Written byDavid Chaskin
Based onCharacters
by Wes Craven
Starring
Music byChristopher Young
Cinematography
Edited by
  • Bob Brady
  • Arline Garson
Production
company
Distributed byNew Line Cinema
Release date
  • November 1, 1985
Running time
87 minutes
CountryUnited States
LanguageEnglish
Budget$3 million[1]
Box office$30 million (US)[2]



Nightmare on Elm Street 2- Freddy's Revenge 1985 GOPI SAHI

Format                         : Matroska
Format version                 : Version 4
File size                      : 676 MiB
Duration                       : 1 h 25 min
Overall bit rate               : 1 104 kb/s
Movie name                     : A Nightmare on Elm Street 2: Freddy's Revenge 1985 GOPI SAHI
Encoded date                   : UTC 2020-09-15 06:37:50

Video
ID                             : 1
Format                         : AVC
Format/Info                    : Advanced Video Codec
Format profile                 : [email protected]
Format settings                : CABAC / 5 Ref Frames
Format settings, CABAC         : Yes
Format settings, Reference fra : 5 frames
Codec ID                       : V_MPEG4/ISO/AVC
Duration                       : 1 h 25 min
Bit rate                       : 899 kb/s
Width                          : 1 280 pixels
Height                         : 720 pixels
Display aspect ratio           : 16:9
Frame rate mode                : Constant
Frame rate                     : 23.976 (24000/1001) FPS
Color space                    : YUV
Chroma subsampling             : 4:2:0
Bit depth                      : 8 bits
Scan type                      : Progressive
Bits/(Pixel*Frame)             : 0.041
Stream size                    : 550 MiB (81%)
Title                          : GOPI SAHI
Writing library                : x264 core 157 r2935 545de2f

Audio #1
ID                             : 2
Format                         : AAC LC
Format/Info                    : Advanced Audio Codec Low Complexity
Codec ID                       : A_AAC-2
Duration                       : 1 h 25 min
Bit rate                       : 96.0 kb/s
Channel(s)                     : 2 channels
Channel layout                 : L R
Sampling rate                  : 48.0 kHz
Frame rate                     : 46.875 FPS (1024 SPF)
Compression mode               : Lossy
Delay relative to video        : -21 ms
Stream size                    : 58.9 MiB (9%)
Title                          : GOPI SAHI
Language                       : Hindi
Default                        : Yes
Forced                         : No

Audio #2
ID                             : 3
Format                         : AAC LC
Format/Info                    : Advanced Audio Codec Low Complexity
Codec ID                       : A_AAC-2
Duration                       : 1 h 25 min
Bit rate                       : 96.0 kb/s
Channel(s)                     : 2 channels
Channel layout                 : L R
Sampling rate                  : 48.0 kHz
Frame rate                     : 46.875 FPS (1024 SPF)
Compression mode               : Lossy
Delay relative to video        : -21 ms
Stream size                    : 58.8 MiB (9%)
Title                          : GOPI SAHI
Language                       : English
Default                        : No
Forced                         : No

Text
ID                             : 4
Format                         : PGS
Muxing mode                    : zlib
Codec ID                       : S_HDMV/PGS
Codec ID/Info                  : Picture based subtitle format used on BDs/HD-DVDs
Duration                       : 1 h 25 min
Bit rate                       : 22.4 kb/s
Count of elements              : 1756
Stream size                    : 13.7 MiB (2%)
Title                          : GOPI SAHI
Language                       : English
Default                        : Yes
Forced                         : Yes

Menu
00:00:00.000                   : :Opening / School Bus Mayhem
00:06:42.944                   : :"Morning Honey"
00:08:30.427                   : :Playing Hard Ball
00:12:04.182                   : :"You've Got the Body, I've Got the Brain"
00:16:02.044                   : :Biology Lessons
00:18:02.582                   : :Surprise, Surprise
00:23:02.840                   : :"Try It on for Size"
00:26:25.876                   : :School Time
00:27:58.594                   : :Bird Rabies
00:30:40.547                   : :Leather Bar
00:33:11.615                   : :On the Ropes
00:37:27.620                   : :The Parents' Concern
00:40:01.608                   : :From Dusk 'till Dawn
00:42:59.869                   : :Fred Krueger Worked Here
00:46:07.556                   : :A Bad Night
00:49:09.697                   : :French Kiss
00:54:03.532                   : :"I'm Scared Grady"
00:57:33.617                   : :"It's Starting to Happen Again"
01:01:30.770                   : :Confession
01:04:21.816                   : :"I Love You Lisa"
01:08:07.667                   : :"You Are All My Children Now"
01:11:15.772                   : :Hades Maze
01:14:57.618                   : :Beauty and the Beast
01:17:30.354                   : :Resurrection
01:20:32.411                   : :Back on the Bus
01:22:50.090                   : :End Credits