Riddick 2013 Extended Cut x264 720p Esub BluRay Dual Audio English Hindi GOPI SAHI

Riddick (2013)


Left for dead on a sun-scorched planet, Riddick finds himself up against an alien race of predators. Activating an emergency beacon alerts two ships: one carrying a new breed of mercenary, the other captained by a man from Riddick's past.
EN

Director:

David Twohy

Writers:

David Twohy, Jim Wheat (based on characters created by) | 1 more credit »

6.4/10
152,266

Directed byDavid Twohy
Produced by
Written byDavid Twohy
Based onCharacters
by Jim Wheat
Ken Wheat
Starring
Music byGraeme Revell
CinematographyDavid Eggby
Edited byTracy Adams
Production
company
Distributed byUniversal Pictures
Release date
  • September 4, 2013 (United Kingdom)
  • September 6, 2013 (United States)
Running time
119 minutes[1]
CountryUnited States
LanguageEnglish
Budget$38 million[2]
Box office$98.3 million[2]


Riddick TriLogy x264 720p Esub BluRay Dual Audio English Hindi GOPI SAHI

Format                         : Matroska
Format version                 : Version 4
File size                      : 1 004 MiB
Duration                       : 2 h 6 min
Overall bit rate               : 1 107 kb/s
Movie name                     : Riddick 2013 Extended Cut GOPISAHI
Encoded date                   : UTC 2020-09-26 01:24:21

Video
ID                             : 3
Format                         : AVC
Format/Info                    : Advanced Video Codec
Format profile                 : [email protected]
Format settings                : CABAC / 12 Ref Frames
Format settings, CABAC         : Yes
Format settings, Reference fra : 12 frames
Codec ID                       : V_MPEG4/ISO/AVC
Duration                       : 2 h 6 min
Bit rate                       : 899 kb/s
Width                          : 1 280 pixels
Height                         : 534 pixels
Display aspect ratio           : 2.40:1
Frame rate mode                : Constant
Frame rate                     : 23.976 (24000/1001) FPS
Color space                    : YUV
Chroma subsampling             : 4:2:0
Bit depth                      : 8 bits
Scan type                      : Progressive
Bits/(Pixel*Frame)             : 0.055
Stream size                    : 815 MiB (81%)
Title                          : GOPI SAHI
Writing library                : x264 core 157 r2935 545de2f

Audio #1
ID                             : 1
Format                         : AAC LC
Format/Info                    : Advanced Audio Codec Low Complexity
Codec ID                       : A_AAC-2
Duration                       : 2 h 6 min
Bit rate                       : 96.0 kb/s
Channel(s)                     : 2 channels
Channel layout                 : L R
Sampling rate                  : 48.0 kHz
Frame rate                     : 46.875 FPS (1024 SPF)
Compression mode               : Lossy
Delay relative to video        : -21 ms
Stream size                    : 87.5 MiB (9%)
Title                          : GOPI SAHI
Language                       : Hindi
Default                        : Yes
Forced                         : No

Audio #2
ID                             : 2
Format                         : AAC LC
Format/Info                    : Advanced Audio Codec Low Complexity
Codec ID                       : A_AAC-2
Duration                       : 2 h 6 min
Bit rate                       : 93.7 kb/s
Channel(s)                     : 2 channels
Channel layout                 : L R
Sampling rate                  : 48.0 kHz
Frame rate                     : 46.875 FPS (1024 SPF)
Compression mode               : Lossy
Delay relative to video        : -21 ms
Stream size                    : 85.0 MiB (8%)
Title                          : GOPI SAHI
Language                       : English
Default                        : No
Forced                         : No

Text
ID                             : 4
Format                         : PGS
Muxing mode                    : zlib
Codec ID                       : S_HDMV/PGS
Codec ID/Info                  : Picture based subtitle format used on BDs/HD-DVDs
Duration                       : 2 h 1 min
Bit rate                       : 36.4 kb/s
Count of elements              : 2368
Stream size                    : 31.6 MiB (3%)
Title                          : GOPI SAHI
Language                       : English






Post a Comment

0 Comments