Speed 1994 x264 720p Esub BluRay Dual Audio English Hindi GOPI SAHI

Speed (1994)

 
A young police officer must prevent a bomb exploding aboard a city bus by keeping its speed above 50 mph.
EN

Director:

Jan de Bont

Writer:

Graham Yost

7.2/10
323,136

Directed byJan de Bont
Produced byMark Gordon
Written byGraham Yost
Starring
Music byMark Mancina
CinematographyAndrzej Bartkowiak
Edited byJohn Wright
Production
company
Mark Gordon Productions
Distributed by20th Century Fox
Release date
  • June 10, 1994
Running time
116 minutes
CountryUnited States
LanguageEnglish
Budget$30 million[1][2][3]
Box office$350.4 million[1]


Speed 1994 GOPI SAHI

Format                         : Matroska
Format version                 : Version 4
File size                      : 904 MiB
Duration                       : 1 h 55 min
Overall bit rate               : 1 091 kb/s
Movie name                     : Speed 1994 GOPI SAHI
Encoded date                   : UTC 2020-09-26 14:22:37
Writing application            : mkvmerge v46.0.0 ('No Deeper Escape') 32-bit
Writing library                : libebml v1.3.10 + libmatroska v1.5.2

Video
ID                             : 1
Format                         : AVC
Format/Info                    : Advanced Video Codec
Format profile                 : [email protected]
Format settings                : CABAC / 5 Ref Frames
Format settings, CABAC         : Yes
Format settings, Reference fra : 5 frames
Codec ID                       : V_MPEG4/ISO/AVC
Duration                       : 1 h 55 min
Bit rate                       : 899 kb/s
Width                          : 1 280 pixels
Height                         : 544 pixels
Display aspect ratio           : 2.35:1
Frame rate mode                : Constant
Frame rate                     : 23.976 (24000/1001) FPS
Color space                    : YUV
Chroma subsampling             : 4:2:0
Bit depth                      : 8 bits
Scan type                      : Progressive
Bits/(Pixel*Frame)             : 0.054
Stream size                    : 745 MiB (82%)
Title                          : GOPI SAHI
Writing library                : x264 core 157 r2935 545de2f

Audio #1
ID                             : 2
Format                         : AAC LC
Format/Info                    : Advanced Audio Codec Low Complexity
Codec ID                       : A_AAC-2
Duration                       : 1 h 51 min
Bit rate                       : 96.0 kb/s
Channel(s)                     : 2 channels
Channel layout                 : L R
Sampling rate                  : 48.0 kHz
Frame rate                     : 46.875 FPS (1024 SPF)
Compression mode               : Lossy
Delay relative to video        : 1 s 529 ms
Stream size                    : 76.7 MiB (8%)
Title                          : GOPI SAHI
Language                       : Hindi
Default                        : Yes
Forced                         : No

Audio #2
ID                             : 3
Format                         : AAC LC
Format/Info                    : Advanced Audio Codec Low Complexity
Codec ID                       : A_AAC-2
Duration                       : 1 h 55 min
Bit rate                       : 96.0 kb/s
Channel(s)                     : 2 channels
Channel layout                 : L R
Sampling rate                  : 48.0 kHz
Frame rate                     : 46.875 FPS (1024 SPF)
Compression mode               : Lossy
Delay relative to video        : -21 ms
Stream size                    : 79.9 MiB (9%)
Title                          : GOPI SAHI
Language                       : English
Default                        : No
Forced                         : No

Text
ID                             : 4
Format                         : UTF-8
Codec ID                       : S_TEXT/UTF8
Codec ID/Info                  : UTF-8 Plain Text
Duration                       : 1 h 50 min
Bit rate                       : 58 b/s
Count of elements              : 1219
Stream size                    : 47.0 KiB (0%)
Title                          : GOPI SAHI
Language                       : English
Default                        : Yes
Forced                         : No






Post a Comment

0 Comments