Terminator 2- Judgment Day 1991 DC x264 720p Esub BluRay Dual Audio English Hindi GOPISAHI

Terminator 2: Judgment Day (1991)



R | | Action, Sci-Fi | 3 July 1991 (USA) 
 
A cyborg, identical to the one who failed to kill Sarah Connor, must now protect her teenage son, John Connor, from a more advanced and powerful cyborg.
EN

Director:

James Cameron

8.5/10
977,938

Directed byJames Cameron
Produced byJames Cameron
Written by
Starring
Music byBrad Fiedel
CinematographyAdam Greenberg
Edited by
Production
company
Distributed byTriStar Pictures
Release date
  • July 1, 1991 (Los Angeles)
  • July 3, 1991 (United States)
Running time
137 minutes[1]
CountryUnited States
LanguageEnglish
Budget$94–102 million[2][3]
Box office$520.8 million[3]

Terminator 2- Judgment Day 1991 DC GOPI SAHI

Format                         : Matroska
Format version                 : Version 4
File size                      : 1.40 GiB
Duration                       : 2 h 33 min
Overall bit rate               : 1 306 kb/s
Movie name                     : 2 Terminator 2: Judgment Day 1991 DC GOPI SAHI
Encoded date                   : UTC 2020-09-27 04:15:39

Video
ID                             : 3
Format                         : AVC
Format/Info                    : Advanced Video Codec
Format profile                 : [email protected]
Format settings                : CABAC / 11 Ref Frames
Format settings, CABAC         : Yes
Format settings, Reference fra : 11 frames
Codec ID                       : V_MPEG4/ISO/AVC
Duration                       : 2 h 33 min
Bit rate                       : 1 100 kb/s
Width                          : 1 280 pixels
Height                         : 546 pixels
Display aspect ratio           : 2.35:1
Frame rate mode                : Constant
Frame rate                     : 23.976 (24000/1001) FPS
Color space                    : YUV
Chroma subsampling             : 4:2:0
Bit depth                      : 8 bits
Scan type                      : Progressive
Bits/(Pixel*Frame)             : 0.066
Stream size                    : 1.18 GiB (84%)
Title                          : GOPI SAHI
Writing library                : x264 core 157 r2935 545de2f

Audio #1
ID                             : 1
Format                         : AAC LC
Format/Info                    : Advanced Audio Codec Low Complexity
Codec ID                       : A_AAC-2
Duration                       : 2 h 33 min
Bit rate                       : 96.0 kb/s
Channel(s)                     : 2 channels
Channel layout                 : L R
Sampling rate                  : 48.0 kHz
Frame rate                     : 46.875 FPS (1024 SPF)
Compression mode               : Lossy
Delay relative to video        : -21 ms
Stream size                    : 106 MiB (7%)
Title                          : GOPI SAHI
Language                       : Hindi
Default                        : No
Forced                         : No

Audio #2
ID                             : 2
Format                         : AAC LC
Format/Info                    : Advanced Audio Codec Low Complexity
Codec ID                       : A_AAC-2
Duration                       : 2 h 33 min
Bit rate                       : 96.0 kb/s
Channel(s)                     : 2 channels
Channel layout                 : L R
Sampling rate                  : 48.0 kHz
Frame rate                     : 46.875 FPS (1024 SPF)
Compression mode               : Lossy
Delay relative to video        : -21 ms
Stream size                    : 106 MiB (7%)
Title                          : GOPI SAHI
Language                       : English
Default                        : No
Forced                         : No

Text
ID                             : 4
Format                         : PGS
Muxing mode                    : zlib
Codec ID                       : S_HDMV/PGS
Codec ID/Info                  : Picture based subtitle format used on BDs/HD-DVDs
Duration                       : 2 h 27 min
Bit rate                       : 21.8 kb/s
Count of elements              : 2130
Stream size                    : 22.9 MiB (2%)
Title                          : GOPI SAHI
Language                       : English
Default                        : Yes
Forced                         : Yes

Menu
00:00:00.000                   : en:Chapter 01
00:06:48.408                   : en:Chapter 02
00:16:31.908                   : en:Chapter 03
00:25:56.472                   : en:Chapter 04
00:33:39.142                   : en:Chapter 05
00:41:34.450                   : en:Chapter 06
00:49:47.943                   : en:Chapter 07
00:58:15.033                   : en:Chapter 08
01:08:41.826                   : en:Chapter 09
01:14:58.202                   : en:Chapter 10
01:23:38.597                   : en:Chapter 11
01:33:02.368                   : en:Chapter 12
01:41:35.089                   : en:Chapter 13
01:49:05.414                   : en:Chapter 14
01:58:19.050                   : en:Chapter 15
02:08:53.392                   : en:Chapter 16
02:15:20.028                   : en:Chapter 17
02:24:05.345                   : en:Chapter 18

















Post a Comment

0 Comments