Terminator Dark Fate 2019 x264 720p Esub BluRay Dual Audio English Hindi GOPISAHI

Terminator: Dark Fate (2019)

 
An augmented human and Sarah Connor must stop an advanced liquid Terminator from hunting down a young girl, whose fate is critical to the human race.
EN

Director:

Tim Miller

Writers:

David S. Goyer (screenplay by) (as David Goyer), Justin Rhodes (screenplay by) | 8 more credits »
6.2/10
135,533

Directed byTim Miller
Produced by
Screenplay by
Story by
Starring
Music byTom Holkenborg
CinematographyKen Seng
Edited byJulian Clarke
Production
company
Distributed by
  • Paramount Pictures (North America)[1]
  • Tencent Pictures (China)
  • 20th Century Fox (International)[1]
Release date
  • October 23, 2019 (Europe)
  • November 1, 2019 (United States)
Running time
128 minutes[2]
CountryUnited States
LanguageEnglish
Budget$185–196 million[3]
Box office$261.1 million[4]


Terminator Dark Fate 2019 GOPI SAHI

Format                         : Matroska
Format version                 : Version 4
File size                      : 1.11 GiB
Duration                       : 2 h 8 min
Overall bit rate mode          : Variable
Overall bit rate               : 1 245 kb/s
Movie name                     : Terminator Dark Fate 2019 GOPISAHI
Encoded date                   : UTC 2020-09-27 04:20:02

Video
ID                             : 3
Format                         : AVC
Format/Info                    : Advanced Video Codec
Format profile                 : [email protected]
Format settings                : CABAC / 7 Ref Frames
Format settings, CABAC         : Yes
Format settings, Reference fra : 7 frames
Codec ID                       : V_MPEG4/ISO/AVC
Duration                       : 2 h 8 min
Bit rate mode                  : Variable
Bit rate                       : 1 050 kb/s
Maximum bit rate               : 62.5 Mb/s
Width                          : 1 280 pixels
Height                         : 544 pixels
Display aspect ratio           : 2.40:1
Original display aspect ratio  : 2.40:1
Frame rate mode                : Constant
Frame rate                     : 23.976 (24000/1001) FPS
Color space                    : YUV
Chroma subsampling             : 4:2:0
Bit depth                      : 8 bits
Scan type                      : Progressive
Bits/(Pixel*Frame)             : 0.063
Stream size                    : 961 MiB (84%)
Title                          : GOPI SAHI
Writing library                : x264 core 157 r2935 545de2f

Audio #1
ID                             : 1
Format                         : AAC LC
Format/Info                    : Advanced Audio Codec Low Complexity
Codec ID                       : A_AAC-2
Duration                       : 2 h 8 min
Bit rate                       : 96.0 kb/s
Channel(s)                     : 2 channels
Channel layout                 : L R
Sampling rate                  : 48.0 kHz
Frame rate                     : 46.875 FPS (1024 SPF)
Compression mode               : Lossy
Stream size                    : 88.3 MiB (8%)
Title                          : GOPI SAHI
Language                       : Hindi
Default                        : Yes
Forced                         : No

Audio #2
ID                             : 2
Format                         : AAC LC
Format/Info                    : Advanced Audio Codec Low Complexity
Codec ID                       : A_AAC-2
Duration                       : 2 h 8 min
Bit rate                       : 96.0 kb/s
Channel(s)                     : 2 channels
Channel layout                 : L R
Sampling rate                  : 48.0 kHz
Frame rate                     : 46.875 FPS (1024 SPF)
Compression mode               : Lossy
Stream size                    : 88.2 MiB (8%)
Title                          : GOPI SAHI
Language                       : English
Default                        : No
Forced                         : No

Text
ID                             : 4
Format                         : UTF-8
Codec ID                       : S_TEXT/UTF8
Codec ID/Info                  : UTF-8 Plain Text
Duration                       : 1 h 57 min
Bit rate                       : 39 b/s
Count of elements              : 1388
Stream size                    : 34.3 KiB (0%)
Title                          : GOPI SAHI
Language                       : English
Default                        : Yes
Forced                         : No

Menu
00:00:00.000                   : en:00:00:00.000
00:04:19.843                   : en:00:04:19.843
00:07:48.927                   : en:00:07:48.927
00:11:47.916                   : en:00:11:47.916
00:16:56.349                   : en:00:16:56.349
00:22:10.663                   : en:00:22:10.663
00:29:00.614                   : en:00:29:00.614
00:33:25.754                   : en:00:33:25.754
00:41:35.493                   : en:00:41:35.493
00:47:02.695                   : en:00:47:02.695
00:53:08.936                   : en:00:53:08.936
00:57:56.807                   : en:00:57:56.807
01:05:02.690                   : en:01:05:02.690
01:13:07.967                   : en:01:13:07.967
01:20:45.591                   : en:01:20:45.591
01:27:29.744                   : en:01:27:29.744
01:32:48.688                   : en:01:32:48.688
01:41:45.850                   : en:01:41:45.850
01:49:35.319                   : en:01:49:35.319
01:57:58.613                   : en:01:57:58.613
















Post a Comment

0 Comments