Terminator Genisys 2015 x264 720p Esub BluRay Dual Audio English Hindi GOPISAHI

Terminator Genisys (2015)


 
When John Connor, leader of the human resistance, sends Sgt. Kyle Reese back to 1984 to protect Sarah Connor and safeguard the future, an unexpected turn of events creates a fractured timeline.
EN

Director:

Alan Taylor
6.3/10
255,499 

Directed byAlan Taylor
Produced by
Written by
Starring
Music byLorne Balfe
CinematographyKramer Morgenthau
Edited byRoger Barton
Production
company
Distributed byParamount Pictures
Release date
  • June 22, 2015 (Berlin)
  • July 1, 2015 (United States)
Running time
126 minutes[1]
CountryUnited States
LanguageEnglish
Budget$155–158 million[2][3]
Box office$440.6 million[2]


Terminator Genisys 2015 GOPI SAHI

Format                         : Matroska
Format version                 : Version 4
File size                      : 1.15 GiB
Duration                       : 2 h 5 min
Overall bit rate               : 1 312 kb/s
Movie name                     : 5 Terminator Genisys 2015 GOPI SAHI
Encoded date                   : UTC 2020-09-27 04:18:58

Video
ID                             : 3
Format                         : AVC
Format/Info                    : Advanced Video Codec
Format profile                 : [email protected]
Format settings                : CABAC / 12 Ref Frames
Format settings, CABAC         : Yes
Format settings, Reference fra : 12 frames
Codec ID                       : V_MPEG4/ISO/AVC
Duration                       : 2 h 5 min
Bit rate                       : 1 100 kb/s
Width                          : 1 280 pixels
Height                         : 536 pixels
Display aspect ratio           : 2.40:1
Frame rate mode                : Constant
Frame rate                     : 23.976 (24000/1001) FPS
Color space                    : YUV
Chroma subsampling             : 4:2:0
Bit depth                      : 8 bits
Scan type                      : Progressive
Bits/(Pixel*Frame)             : 0.067
Stream size                    : 989 MiB (84%)
Title                          : GOPI SAHI
Writing library                : x264 core 157 r2935 545de2f

Audio #1
ID                             : 1
Format                         : AAC LC
Format/Info                    : Advanced Audio Codec Low Complexity
Codec ID                       : A_AAC-2
Duration                       : 2 h 5 min
Bit rate                       : 96.0 kb/s
Channel(s)                     : 2 channels
Channel layout                 : L R
Sampling rate                  : 48.0 kHz
Frame rate                     : 46.875 FPS (1024 SPF)
Compression mode               : Lossy
Delay relative to video        : -21 ms
Stream size                    : 86.7 MiB (7%)
Title                          : GOPI SAHI
Language                       : Hindi
Default                        : No
Forced                         : No

Audio #2
ID                             : 2
Format                         : AAC LC
Format/Info                    : Advanced Audio Codec Low Complexity
Codec ID                       : A_AAC-2
Duration                       : 2 h 5 min
Bit rate                       : 96.0 kb/s
Channel(s)                     : 2 channels
Channel layout                 : L R
Sampling rate                  : 48.0 kHz
Frame rate                     : 46.875 FPS (1024 SPF)
Compression mode               : Lossy
Delay relative to video        : -21 ms
Stream size                    : 86.8 MiB (7%)
Title                          : GOPI SAHI
Language                       : English
Default                        : No
Forced                         : No

Text #1
ID                             : 4
Format                         : PGS
Muxing mode                    : zlib
Codec ID                       : S_HDMV/PGS
Codec ID/Info                  : Picture based subtitle format used on BDs/HD-DVDs
Duration                       : 2 h 4 min
Bit rate                       : 22.5 kb/s
Count of elements              : 2728
Stream size                    : 20.1 MiB (2%)
Title                          : GOPI SAHI
Language                       : Hindi
Default                        : Yes
Forced                         : Yes

Text #2
ID                             : 5
Format                         : PGS
Muxing mode                    : zlib
Codec ID                       : S_HDMV/PGS
Codec ID/Info                  : Picture based subtitle format used on BDs/HD-DVDs
Duration                       : 1 h 56 min
Bit rate                       : 30.4 kb/s
Count of elements              : 2680
Stream size                    : 25.4 MiB (2%)
Title                          : GOPI SAHI
Language                       : English
Default                        : No
Forced                         : No

Menu
00:00:00.000                   : en:Chapter 01
00:07:40.335                   : en:Chapter 02
00:14:20.735                   : en:Chapter 03
00:20:31.564                   : en:Chapter 04
00:27:48.417                   : en:Chapter 05
00:34:54.801                   : en:Chapter 06
00:41:02.627                   : en:Chapter 07
00:46:28.786                   : en:Chapter 08
00:53:05.516                   : en:Chapter 09
01:01:00.240                   : en:Chapter 10
01:08:22.557                   : en:Chapter 11
01:14:43.813                   : en:Chapter 12
01:21:31.261                   : en:Chapter 13
01:31:01.706                   : en:Chapter 14
01:38:42.750                   : en:Chapter 15
01:45:41.085                   : en:Chapter 16
01:52:48.971                   : en:Chapter 17
01:58:00.115                   : en:Chapter 18






Post a Comment

0 Comments