The Aviator 2004 x264 720p Esub BluRay Dual Audio English Hindi GOPI SAHI

The Aviator (2004)

 
A biopic depicting the early years of legendary Director and aviator Howard Hughes' career from the late 1920s to the mid 1940s.
EN

Director:

Martin Scorsese

Writer:

John Logan

7.5/10
327,957

Directed byMartin Scorsese
Produced byMichael Mann
Sandy Climan
Graham King
Charles Evans Jr.
Written byJohn Logan
StarringLeonardo DiCaprio
Cate Blanchett
Kate Beckinsale
John C. Reilly
Alec Baldwin
Alan Alda
Jude Law
Music byHoward Shore
CinematographyRobert Richardson
Edited byThelma Schoonmaker
Production
company
Distributed byWarner Bros. Pictures
(North America)
Miramax Films
(International)
Release date
  • December 14, 2004 (New York City)
  • December 25, 2004 (United States)
Running time
170 minutes
CountryUnited States
LanguageEnglish
Budget$110 million
Box office$213.7 million[1]


The Aviator 2004 x264 720p Esub BluRay Dual Audio English Hindi GOPI SAHI

Format                         : Matroska
Format version                 : Version 4
File size                      : 1.32 GiB
Duration                       : 2 h 50 min
Overall bit rate               : 1 111 kb/s
Movie name                     : The Aviator 2004 GOPI SAHI
Encoded date                   : UTC 2020-09-29 02:28:13

Video
ID                             : 1
Format                         : AVC
Format/Info                    : Advanced Video Codec
Format profile                 : [email protected]
Format settings                : CABAC / 5 Ref Frames
Format settings, CABAC         : Yes
Format settings, Reference fra : 5 frames
Codec ID                       : V_MPEG4/ISO/AVC
Duration                       : 2 h 50 min
Bit rate                       : 899 kb/s
Width                          : 1 280 pixels
Height                         : 546 pixels
Display aspect ratio           : 2.35:1
Frame rate mode                : Constant
Frame rate                     : 23.976 (24000/1001) FPS
Color space                    : YUV
Chroma subsampling             : 4:2:0
Bit depth                      : 8 bits
Scan type                      : Progressive
Bits/(Pixel*Frame)             : 0.054
Stream size                    : 1.07 GiB (81%)
Title                          : GOPI SAHI
Writing library                : x264 core 157 r2935 545de2f

Audio #1
ID                             : 2
Format                         : AAC LC
Format/Info                    : Advanced Audio Codec Low Complexity
Codec ID                       : A_AAC-2
Duration                       : 2 h 50 min
Bit rate                       : 96.0 kb/s
Channel(s)                     : 2 channels
Channel layout                 : L R
Sampling rate                  : 48.0 kHz
Frame rate                     : 46.875 FPS (1024 SPF)
Compression mode               : Lossy
Delay relative to video        : 4 ms
Stream size                    : 117 MiB (9%)
Title                          : GOPI SAHI
Language                       : Hindi
Default                        : Yes
Forced                         : No

Audio #2
ID                             : 3
Format                         : AAC LC
Format/Info                    : Advanced Audio Codec Low Complexity
Codec ID                       : A_AAC-2
Duration                       : 2 h 50 min
Bit rate                       : 96.0 kb/s
Channel(s)                     : 2 channels
Channel layout                 : L R
Sampling rate                  : 48.0 kHz
Frame rate                     : 46.875 FPS (1024 SPF)
Compression mode               : Lossy
Delay relative to video        : -20 ms
Stream size                    : 117 MiB (9%)
Title                          : GOPI SAHI
Language                       : English
Default                        : No
Forced                         : No

Text
ID                             : 4
Format                         : PGS
Muxing mode                    : zlib
Codec ID                       : S_HDMV/PGS
Codec ID/Info                  : Picture based subtitle format used on BDs/HD-DVDs
Duration                       : 2 h 48 min
Bit rate                       : 38.1 kb/s
Count of elements              : 4119
Stream size                    : 46.0 MiB (3%)
Title                          : GOPI SAHI
Language                       : English
Default                        : Yes
Forced                         : Yes

Menu
00:00:00.000                   : :Young Howard
00:02:17.721                   : :"Welcome to Hollywood," Hell's Angels Year One
00:10:34.175                   : :Hell's Angels Year Two
00:17:32.343                   : :Hell's Angels Year Three
00:21:36.629                   : :"Howard Hughes' $4 Million Epic"
00:26:41.725                   : :"Follow-Through Is Everything in Golf, Just Like Life"
00:30:20.110                   : :TWA... "Tiger by the Tail"
00:32:38.582                   : :"I'm Sure You Know Errol"
00:37:10.061                   : :Teaching Kate to Fly
00:42:05.773                   : :H-1 Racer, Breaking the World Speed Record
00:47:27.011                   : :Letting Kate In
00:52:40.324                   : :Around the World in Four Days
00:54:12.166                   : :"Don't Worry About It Howard, She's Just Working the Room"
00:57:55.931                   : :Visiting the Hepburn Estate
01:03:26.303                   : :MPAA Outlaws Mammaries
01:08:09.544                   : :Selling The Hercules
01:09:17.362                   : :"There's Too Much Howard Hughes in Howard Hughes"
01:12:36.060                   : :The Constellation
01:15:56.469                   : :"We're Too Alike, You and I"
01:21:11.867                   : :Faith Domergue
01:29:41.543                   : :"Kill the Story," Burying the Hepburn-Tracy Scandal
01:32:43.975                   : :Ava Gardner
01:35:42.195                   : :"Show Me All the Blueprints, Show Me All the Blueprints"
01:41:14.735                   : :XP-11, Inaugural Flight and Crash
01:47:42.456                   : :Flowers From Juan Trippe
01:52:07.095                   : :Government Investigation
02:03:17.640                   : :Q-U-A-R-A-N-T-I-N-E
02:17:16.145                   : :The Germ-Free Zone
02:21:52.879                   : :Brewster Senate Hearings
02:29:48.104                   : :The Flying Boat
02:39:30.686                   : :"The Way of the Future, the Way of the Future"
02:43:32.303                   : :End Credits




Post a Comment

0 Comments