The Chronicles of Riddick 2004 x264 720p BluRay Dual Audio English Hindi GOPI SAHI

The Chronicles of Riddick (2004)



The wanted criminal Richard Bruno Riddick (Vin Diesel) arrives on a planet called Helion Prime and finds himself up against an invading empire called the Necromongers, an army that plans to convert or kill all humans in the universe.
EN

Director:

David Twohy

Writers:

Jim Wheat (characters), Ken Wheat (characters) | 1 more credit »

6.7/10


Directed byDavid Twohy
Produced by
Written byDavid Twohy
Based onCharacters
by Jim Wheat
Ken Wheat
Starring
Music byGraeme Revell
CinematographyHugh Johnson
Edited by
Production
company
Distributed byUniversal Pictures
Release date
  • June 11, 2004
Running time
119 minutes
135 minutes (Director's cut)
CountryUnited States
LanguageEnglish
Budget$105[1]–120 million[2]
Box office$115.8 million[1]





Format                         : Matroska
Format version                 : Version 4
File size                      : 939 MiB
Duration                       : 1 h 59 min
Overall bit rate               : 1 101 kb/s
Movie name                     : The Chronicles of Riddick 2004 GOPI SAHI
Encoded date                   : UTC 2020-09-26 09:31:32

Video
ID                             : 1
Format                         : AVC
Format/Info                    : Advanced Video Codec
Format profile                 : [email protected]
Format settings                : CABAC / 5 Ref Frames
Format settings, CABAC         : Yes
Format settings, Reference fra : 5 frames
Codec ID                       : V_MPEG4/ISO/AVC
Duration                       : 1 h 59 min
Bit rate                       : 899 kb/s
Width                          : 1 280 pixels
Height                         : 534 pixels
Display aspect ratio           : 2.40:1
Frame rate mode                : Constant
Frame rate                     : 23.976 (24000/1001) FPS
Color space                    : YUV
Chroma subsampling             : 4:2:0
Bit depth                      : 8 bits
Scan type                      : Progressive
Bits/(Pixel*Frame)             : 0.055
Stream size                    : 766 MiB (82%)
Title                          : GOPI SAHI
Writing library                : x264 core 157 r2935 545de2f

Audio #1
ID                             : 2
Format                         : AAC LC
Format/Info                    : Advanced Audio Codec Low Complexity
Codec ID                       : A_AAC-2
Duration                       : 1 h 59 min
Bit rate                       : 96.0 kb/s
Channel(s)                     : 2 channels
Channel layout                 : L R
Sampling rate                  : 48.0 kHz
Frame rate                     : 46.875 FPS (1024 SPF)
Compression mode               : Lossy
Delay relative to video        : 979 ms
Stream size                    : 82.2 MiB (9%)
Title                          : GOPI SAHI
Language                       : Hindi
Default                        : Yes
Forced                         : No

Audio #2
ID                             : 3
Format                         : AAC LC
Format/Info                    : Advanced Audio Codec Low Complexity
Codec ID                       : A_AAC-2
Duration                       : 1 h 59 min
Bit rate                       : 96.0 kb/s
Channel(s)                     : 2 channels
Channel layout                 : L R
Sampling rate                  : 48.0 kHz
Frame rate                     : 46.875 FPS (1024 SPF)
Compression mode               : Lossy
Delay relative to video        : -21 ms
Stream size                    : 82.2 MiB (9%)
Title                          : GOPI SAHI
Language                       : English
Default                        : No
Forced                         : No

Text
ID                             : 4
Format                         : PGS
Muxing mode                    : zlib
Codec ID                       : S_HDMV/PGS
Codec ID/Info                  : Picture based subtitle format used on BDs/HD-DVDs
Duration                       : 1 h 48 min
Bit rate                       : 23.2 kb/s
Count of elements              : 1800
Stream size                    : 17.9 MiB (2%)
Title                          : GOPI SAHI
Language                       : English
Default                        : Yes
Forced                         : No




Post a Comment

0 Comments