The Expendables 3 2014 x264 720p Esub BluRay Dual Audio English Hindi GOPI SAHI

The Expendables 3 (2014)



Barney augments his team with new blood for a personal battle: to take down Conrad Stonebanks, the Expendables co-founder and notorious arms trader who is hell bent on wiping out Barney and every single one of his associates.
EN

Director:

Patrick Hughes

Writers:

Sylvester Stallone (screenplay by), Creighton Rothenberger (screenplay) | 3 more credits »
6.1/10

Directed byPatrick Hughes
Produced by
  • Avi Lerner
  • Kevin King-Templeton
  • Danny Lerner
  • Les Weldon
  • John Thompson[1]
Screenplay by
Story bySylvester Stallone
Based onCharacters
by David Callaham
Starring
Music byBrian Tyler
CinematographyPeter Menzies, Jr.
Edited by
  • Sean Albertson
  • Paul Harb
Production
companies
Distributed byLionsgate
Release date
  • August 4, 2014 (London)
  • August 15, 2014 (United States)
Running time
126 minutes[2]
CountryUnited States[3]
LanguageEnglish
Budget$90–100 million[4][5]
Box office$214.7 million[6]





The Expendables 3 2014 x264 720p Esub BluRay Dual Audio English Hindi GOPI SAHI

Format                         : Matroska
Format version                 : Version 4
File size                      : 1.06 GiB
Duration                       : 2 h 6 min
Overall bit rate               : 1 204 kb/s
Movie name                     : The Expendables 3 2014 GOPI SAHI
Encoded date                   : UTC 2020-09-22 12:29:35
Writing application            : mkvmerge v46.0.0 ('No Deeper Escape') 32-bit
Writing library                : libebml v1.3.10 + libmatroska v1.5.2
Attachments                    : Hammer Logo.jpg

Video
ID                             : 1
Format                         : AVC
Format/Info                    : Advanced Video Codec
Format profile                 : [email protected]
Format settings                : CABAC / 5 Ref Frames
Format settings, CABAC         : Yes
Format settings, Reference fra : 5 frames
Codec ID                       : V_MPEG4/ISO/AVC
Duration                       : 2 h 6 min
Bit rate                       : 899 kb/s
Width                          : 1 280 pixels
Height                         : 536 pixels
Display aspect ratio           : 2.40:1
Frame rate mode                : Constant
Frame rate                     : 23.976 (24000/1001) FPS
Color space                    : YUV
Chroma subsampling             : 4:2:0
Bit depth                      : 8 bits
Scan type                      : Progressive
Bits/(Pixel*Frame)             : 0.055
Stream size                    : 813 MiB (75%)
Title                          : GOPI SAHI
Writing library                : x264 core 157 r2935 545de2f

Audio #1
ID                             : 2
Format                         : AAC LC
Format/Info                    : Advanced Audio Codec Low Complexity
Codec ID                       : A_AAC-2
Duration                       : 2 h 6 min
Bit rate                       : 96.0 kb/s
Channel(s)                     : 2 channels
Channel layout                 : L R
Sampling rate                  : 48.0 kHz
Frame rate                     : 46.875 FPS (1024 SPF)
Compression mode               : Lossy
Delay relative to video        : -17 ms
Stream size                    : 87.2 MiB (8%)
Title                          : GOPI SAHI
Language                       : Hindi
Default                        : Yes
Forced                         : No

Audio #2
ID                             : 3
Format                         : AAC LC
Format/Info                    : Advanced Audio Codec Low Complexity
Codec ID                       : A_AAC-2
Duration                       : 2 h 6 min
Bit rate                       : 96.0 kb/s
Channel(s)                     : 2 channels
Channel layout                 : L R
Sampling rate                  : 48.0 kHz
Frame rate                     : 46.875 FPS (1024 SPF)
Compression mode               : Lossy
Delay relative to video        : -21 ms
Stream size                    : 87.2 MiB (8%)
Title                          : GOPI SAHI
Language                       : English
Default                        : No
Forced                         : No

Text
ID                             : 4
Format                         : PGS
Muxing mode                    : zlib
Codec ID                       : S_HDMV/PGS
Codec ID/Info                  : Picture based subtitle format used on BDs/HD-DVDs
Duration                       : 1 h 54 min
Bit rate                       : 417 kb/s
Count of elements              : 15879
Stream size                    : 342 MiB (31%)
Title                          : GOPI SAHI
Language                       : English
Default                        : Yes
Forced                         : No