The Myth 2005 x264 720p Esub BluRay Dual Audio English Hindi GOPI SAHI

The Myth (2005)


San wa (original title)
Archeologist Jack keeps having reoccurring dreams of a past life, where he is the great General Meng Yi, who is sworn to protect a Korean Princess named Ok-Soo. Jack decides to go investigate everything with his friend William.
EN

Director:

Stanley Tong

Writers:

Stanley Tong (screenplay), Hui-Ling Wang (screenplay) | 2 more credits »

6.1/10
14,239

Traditional神話
Simplified神话
MandarinShénhuà
CantoneseSan4-waa2
Directed byStanley Tong
Produced byJackie Chan
Solon So
Barbie Tung
Willie Chan
Yang Buting
Albert Yeung
Written byStanley Tong
Li Haishu
Hui-Ling Wang
StarringJackie Chan
Tony Leung Ka-fai
Kim Hee-sun
Mallika Sherawat
Music byWong Chung-Yin
Gary Chase
CinematographyHorace Wong
Ng Man-Ching
Michael Johnson
Lai Yiu-Fai
Choi Shung-Fai
Edited byYau Chi-Wai
Distributed byJCE Movies Limited
Release date
  • 11 May 2005
Running time
118 minutes
CountryHong Kong
LanguageCantonese
Mandarin Chinese
Korean
English
Malayalam
BudgetUSD$15,000,000

The Myth 2005 x264 720p Esub BluRay Dual Audio English Hindi GOPI SAHI

Format                         : Matroska
Format version                 : Version 4
File size                      : 950 MiB
Duration                       : 2 h 0 min
Overall bit rate               : 1 101 kb/s
Movie name                     : The Myth 2005 GOPI SAHI
Encoded date                   : UTC 2020-09-27 05:38:18

Video
ID                             : 1
Format                         : AVC
Format/Info                    : Advanced Video Codec
Format profile                 : [email protected]
Format settings                : CABAC / 5 Ref Frames
Format settings, CABAC         : Yes
Format settings, Reference fra : 5 frames
Codec ID                       : V_MPEG4/ISO/AVC
Duration                       : 2 h 0 min
Bit rate                       : 899 kb/s
Width                          : 1 280 pixels
Height                         : 544 pixels
Display aspect ratio           : 2.35:1
Frame rate mode                : Constant
Frame rate                     : 24.000 FPS
Color space                    : YUV
Chroma subsampling             : 4:2:0
Bit depth                      : 8 bits
Scan type                      : Progressive
Bits/(Pixel*Frame)             : 0.054
Stream size                    : 775 MiB (82%)
Title                          : GOPI SAHI
Writing library                : x264 core 157 r2935 545de2f

Audio #1
ID                             : 2
Format                         : AAC LC
Format/Info                    : Advanced Audio Codec Low Complexity
Codec ID                       : A_AAC-2
Duration                       : 2 h 0 min
Bit rate                       : 96.0 kb/s
Channel(s)                     : 2 channels
Channel layout                 : L R
Sampling rate                  : 48.0 kHz
Frame rate                     : 46.875 FPS (1024 SPF)
Compression mode               : Lossy
Delay relative to video        : 1 s 29 ms
Stream size                    : 83.0 MiB (9%)
Title                          : GOPI SAHI
Language                       : Hindi
Default                        : Yes
Forced                         : No

Audio #2
ID                             : 3
Format                         : AAC LC
Format/Info                    : Advanced Audio Codec Low Complexity
Codec ID                       : A_AAC-2
Duration                       : 2 h 0 min
Bit rate                       : 96.0 kb/s
Channel(s)                     : 2 channels
Channel layout                 : L R
Sampling rate                  : 48.0 kHz
Frame rate                     : 46.875 FPS (1024 SPF)
Compression mode               : Lossy
Delay relative to video        : -21 ms
Stream size                    : 83.3 MiB (9%)
Title                          : GOPI SAHI
Language                       : English
Default                        : No
Forced                         : No

Text
ID                             : 4
Format                         : PGS
Muxing mode                    : zlib
Codec ID                       : S_HDMV/PGS
Codec ID/Info                  : Picture based subtitle format used on BDs/HD-DVDs
Duration                       : 1 h 58 min
Bit rate                       : 23.8 kb/s
Count of elements              : 1692
Stream size                    : 20.2 MiB (2%)
Title                          : GOPI SAHI
Language                       : English
Default                        : Yes
Forced                         : No





Post a Comment

0 Comments