The Terminator 1984 x264 720p Esub BluRay Dual Audio English Hindi GOPISAHI

The Terminator (1984)


A human soldier is sent from 2029 to 1984 to stop an almost indestructible cyborg killing machine, sent from the same year, which has been programmed to execute a young woman whose unborn son is the key to humanity's future salvation.
EN

Director:

James Cameron
8.0/10


Directed byJames Cameron
Produced byGale Anne Hurd
Written by
  • James Cameron
  • Gale Anne Hurd
Starring
Music byBrad Fiedel
CinematographyAdam Greenberg
Edited byMark Goldblatt
Production
companies
Distributed byOrion Pictures
Release date
  • October 26, 1984
Running time
107 minutes[1]
CountryUnited States[2][3][4][5]
LanguageEnglish
Budget$6.4 million[6]
Box office$78.3 million[6]



The Terminator 1984 GOPI SAHI

Format                         : Matroska
Format version                 : Version 4
File size                      : 1 000 MiB
Duration                       : 1 h 47 min
Overall bit rate               : 1 301 kb/s
Movie name                     : 1 The Terminator 1984 GOPI SAHI
Encoded date                   : UTC 2020-09-27 04:14:51.

Video
ID                             : 3
Format                         : AVC
Format/Info                    : Advanced Video Codec
Format profile                 : [email protected]
Format settings                : CABAC / 9 Ref Frames
Format settings, CABAC         : Yes
Format settings, Reference fra : 9 frames
Codec ID                       : V_MPEG4/ISO/AVC
Duration                       : 1 h 47 min
Bit rate                       : 1 100 kb/s
Width                          : 1 280 pixels
Height                         : 694 pixels
Display aspect ratio           : 1.85:1
Frame rate mode                : Constant
Frame rate                     : 23.976 (24000/1001) FPS
Color space                    : YUV
Chroma subsampling             : 4:2:0
Bit depth                      : 8 bits
Scan type                      : Progressive
Bits/(Pixel*Frame)             : 0.052
Stream size                    : 845 MiB (84%)
Title                          : GOPI SAHI
Writing library                : x264 core 157 r2935 545de2f

Audio #1
ID                             : 1
Format                         : AAC LC
Format/Info                    : Advanced Audio Codec Low Complexity
Codec ID                       : A_AAC-2
Duration                       : 1 h 47 min
Bit rate                       : 96.0 kb/s
Channel(s)                     : 2 channels
Channel layout                 : L R
Sampling rate                  : 48.0 kHz
Frame rate                     : 46.875 FPS (1024 SPF)
Compression mode               : Lossy
Delay relative to video        : 7 s 75 ms
Stream size                    : 74.3 MiB (7%)
Title                          : GOPI SAHI
Language                       : Hindi
Default                        : No
Forced                         : No

Audio #2
ID                             : 2
Format                         : AAC LC
Format/Info                    : Advanced Audio Codec Low Complexity
Codec ID                       : A_AAC-2
Duration                       : 1 h 47 min
Bit rate                       : 96.0 kb/s
Channel(s)                     : 2 channels
Channel layout                 : L R
Sampling rate                  : 48.0 kHz
Frame rate                     : 46.875 FPS (1024 SPF)
Compression mode               : Lossy
Delay relative to video        : -21 ms
Stream size                    : 74.0 MiB (7%)
Title                          : GOPI SAHI
Language                       : English
Default                        : No
Forced                         : No

Text
ID                             : 4
Format                         : PGS
Muxing mode                    : zlib
Codec ID                       : S_HDMV/PGS
Codec ID/Info                  : Picture based subtitle format used on BDs/HD-DVDs
Duration                       : 1 h 47 min
Bit rate                       : 16.9 kb/s
Count of elements              : 1136
Stream size                    : 13.0 MiB (1%)
Title                          : GOPI SAHI
Language                       : English
Default                        : Yes
Forced                         : Yes

Menu
00:00:00.000                   : en:Chapter 01
00:03:32.254                   : en:Chapter 02
00:05:18.151                   : en:Chapter 03
00:11:38.323                   : en:Chapter 04
00:13:45.324                   : en:Chapter 05
00:15:11.828                   : en:Chapter 06
00:16:31.616                   : en:Chapter 07
00:20:44.618                   : en:Chapter 08
00:22:49.618                   : en:Chapter 09
00:29:49.788                   : en:Chapter 10
00:33:15.035                   : en:Chapter 11
00:38:47.116                   : en:Chapter 12
00:41:25.191                   : en:Chapter 13
00:47:46.489                   : en:Chapter 14
00:50:39.995                   : en:Chapter 15
00:54:41.570                   : en:Chapter 16
00:59:04.916                   : en:Chapter 17
01:03:53.538                   : en:Chapter 18
01:09:35.546                   : en:Chapter 19
01:14:08.986                   : en:Chapter 20
01:15:00.079                   : en:Chapter 21
01:17:18.801                   : en:Chapter 22
01:18:30.372                   : en:Chapter 23
01:23:00.893                   : en:Chapter 24
01:26:24.721                   : en:Chapter 25
01:30:22.584                   : en:Chapter 26
01:32:19.367                   : en:Chapter 27
01:35:52.121                   : en:Chapter 28
01:39:53.863                   : en:Chapter 29
01:40:18.721                   : en:Chapter 30
01:40:49.335                   : en:Chapter 31
01:43:12.895                   : en:Chapter 32






Post a Comment

0 Comments