The Transporter 2002 x264 720p Esub BluRay Dual Audio English Hindi GOPI SAHI

The Transporter (2002)


Frank Martin, who "transports" packages for unknown clients, is asked to move a package that soon begins moving, and complications arise.
EN

Directors:

Louis Leterrier, Corey Yuen (as Cory Yuen)

6.8/10
281,616

Directed by
Produced by
Written by
Starring
Music byStanley Clarke
CinematographyPierre Morel
Edited byNicolas Trembasiewicz
Production
companies
Distributed by20th Century Fox
Release date
  • 2 October 2002 (premiere)
  • 23 October 2002 (France)
Running time
92 minutes[1]
CountryFrance[2]
LanguageEnglish
Budget€20.9 million[3]
($20.5 million)
Box office$43.9 million[4]



The Transporter 2002 GOPISAHI

Format                         : Matroska
Format version                 : Version 4
File size                      : 822 MiB
Duration                       : 1 h 32 min
Overall bit rate               : 1 242 kb/s
Movie name                     : The Transporter 2002 GOPISAHI
Encoded date                   : UTC 2019-10-13 15:13:12

Video
ID                             : 1
Format                         : AVC
Format/Info                    : Advanced Video Codec
Format profile                 : [email protected]
Format settings                : CABAC / 12 Ref Frames
Format settings, CABAC         : Yes
Format settings, Reference fra : 12 frames
Codec ID                       : V_MPEG4/ISO/AVC
Duration                       : 1 h 32 min
Bit rate                       : 899 kb/s
Width                          : 1 280 pixels
Height                         : 544 pixels
Display aspect ratio           : 2.35:1
Frame rate mode                : Constant
Frame rate                     : 23.976 (24000/1001) FPS
Color space                    : YUV
Chroma subsampling             : 4:2:0
Bit depth                      : 8 bits
Scan type                      : Progressive
Bits/(Pixel*Frame)             : 0.054
Stream size                    : 595 MiB (72%)
Title                          : GOPISAHI
Writing library                : x264 core 157 r2935 545de2f

Audio #1
ID                             : 2
Format                         : AAC LC
Format/Info                    : Advanced Audio Codec Low Complexity
Codec ID                       : A_AAC-2
Duration                       : 1 h 32 min
Bit rate                       : 128 kb/s
Channel(s)                     : 2 channels
Channel layout                 : L R
Sampling rate                  : 48.0 kHz
Frame rate                     : 46.875 FPS (1024 SPF)
Compression mode               : Lossy
Delay relative to video        : -21 ms
Stream size                    : 85.0 MiB (10%)
Title                          : GOPISAHI
Language                       : Hindi
Default                        : Yes
Forced                         : No

Audio #2
ID                             : 3
Format                         : AAC LC
Format/Info                    : Advanced Audio Codec Low Complexity
Codec ID                       : A_AAC-2
Duration                       : 1 h 32 min
Bit rate                       : 192 kb/s
Channel(s)                     : 6 channels
Channel layout                 : C L R Ls Rs LFE
Sampling rate                  : 48.0 kHz
Frame rate                     : 46.875 FPS (1024 SPF)
Compression mode               : Lossy
Delay relative to video        : -21 ms
Stream size                    : 127 MiB (15%)
Title                          : GOPISAHI
Language                       : English
Default                        : No
Forced                         : No

Text #1
ID                             : 4
Format                         : PGS
Muxing mode                    : zlib
Codec ID                       : S_HDMV/PGS
Codec ID/Info                  : Picture based subtitle format used on BDs/HD-DVDs
Duration                       : 1 h 22 min
Bit rate                       : 56.0 kb/s
Count of elements              : 3404
Stream size                    : 33.2 MiB (4%)
Title                          : GOPISAHI
Language                       : English
Default                        : Yes
Forced                         : No

Text #2
ID                             : 5
Format                         : PGS
Muxing mode                    : zlib
Codec ID                       : S_HDMV/PGS
Codec ID/Info                  : Picture based subtitle format used on BDs/HD-DVDs
Duration                       : 1 h 23 min
Bit rate                       : 23.4 kb/s
Count of elements              : 888
Stream size                    : 13.9 MiB (2%)
Title                          : GOPISAHI
Language                       : English
Default                        : No
Forced                         : No

Text #3
ID                             : 6
Format                         : UTF-8
Codec ID                       : S_TEXT/UTF8
Codec ID/Info                  : UTF-8 Plain Text
Duration                       : 1 h 22 min
Bit rate                       : 32 b/s
Count of elements              : 718
Stream size                    : 20.0 KiB (0%)
Title                          : GOPISAHI
Language                       : English
Default                        : No
Forced                         : No

Text #4
ID                             : 7
Format                         : UTF-8
Codec ID                       : S_TEXT/UTF8
Codec ID/Info                  : UTF-8 Plain Text
Duration                       : 1 h 23 min
Bit rate                       : 31 b/s
Count of elements              : 444
Stream size                    : 19.0 KiB (0%)
Title                          : GOPISAHI
Language                       : English
Default                        : No
Forced                         : No


















Post a Comment

0 Comments