The Transporter 3 2008 x264 720p Esub BluRay Dual Audio English Hindi GOPI SAHI

Transporter 3 (2008)


 
Frank Martin puts the driving gloves on to deliver Valentina, the kidnapped daughter of a Ukrainian government official, from Marseilles to Odessa on the Black Sea. En route, he has to contend with thugs who want to intercept Valentina's safe delivery and not let his personal feelings get in the way of his dangerous objective.
EN

Director:

Olivier Megaton
Directed byOlivier Megaton
Produced by
Written by
Based onCharacters
by Luc Besson
Robert Mark Kamen
Starring
Music byAlexandre Azaria
CinematographyGiovanni Fiore Coltellacci
Edited by
Production
company
Distributed byEuropaCorp Distribution
Release date
  • November 26, 2008
Running time
104 minutes
CountryFrance
LanguageEnglish
French
Budget€26.6 million[1]
($40 million)
Box office$109 million[2]



The Transporter 3 2008 GOPISAHI

Format                         : Matroska
Format version                 : Version 4
File size                      : 909 MiB
Duration                       : 1 h 43 min
Overall bit rate               : 1 222 kb/s
Movie name                     : The Transporter 3 2008 GOPISAHI
Encoded date                   : UTC 2019-10-13 15:15:15

Video
ID                             : 1
Format                         : AVC
Format/Info                    : Advanced Video Codec
Format profile                 : [email protected]
Format settings                : CABAC / 12 Ref Frames
Format settings, CABAC         : Yes
Format settings, Reference fra : 12 frames
Codec ID                       : V_MPEG4/ISO/AVC
Duration                       : 1 h 43 min
Bit rate                       : 899 kb/s
Width                          : 1 280 pixels
Height                         : 544 pixels
Display aspect ratio           : 2.35:1
Frame rate mode                : Constant
Frame rate                     : 23.976 (24000/1001) FPS
Color space                    : YUV
Chroma subsampling             : 4:2:0
Bit depth                      : 8 bits
Scan type                      : Progressive
Bits/(Pixel*Frame)             : 0.054
Stream size                    : 668 MiB (74%)
Title                          : GOPISAHI
Writing library                : x264 core 157 r2935 545de2f

Audio #1
ID                             : 2
Format                         : AAC LC
Format/Info                    : Advanced Audio Codec Low Complexity
Codec ID                       : A_AAC-2
Duration                       : 1 h 43 min
Bit rate                       : 128 kb/s
Channel(s)                     : 2 channels
Channel layout                 : L R
Sampling rate                  : 48.0 kHz
Frame rate                     : 46.875 FPS (1024 SPF)
Compression mode               : Lossy
Delay relative to video        : -21 ms
Stream size                    : 95.5 MiB (11%)
Title                          : GOPISAHI
Language                       : Hindi
Default                        : Yes
Forced                         : No

Audio #2
ID                             : 3
Format                         : AAC LC
Format/Info                    : Advanced Audio Codec Low Complexity
Codec ID                       : A_AAC-2
Duration                       : 1 h 43 min
Bit rate                       : 192 kb/s
Channel(s)                     : 6 channels
Channel layout                 : C L R Ls Rs LFE
Sampling rate                  : 48.0 kHz
Frame rate                     : 46.875 FPS (1024 SPF)
Compression mode               : Lossy
Delay relative to video        : -21 ms
Stream size                    : 143 MiB (16%)
Title                          : GOPISAHI
Language                       : English
Default                        : No
Forced                         : No

Text
ID                             : 4
Format                         : UTF-8
Codec ID                       : S_TEXT/UTF8
Codec ID/Info                  : UTF-8 Plain Text
Duration                       : 1 h 35 min
Bit rate                       : 41 b/s
Count of elements              : 878
Stream size                    : 28.7 KiB (0%)
Title                          : GOPISAHI
Language                       : English
Default                        : Yes
Forced                         : No




Post a Comment

0 Comments