Volcano 1997 x264 720p Esub BluRay Dual Audio English Hindi GOPI SAHI

Volcano (1997)





PG-13 | | Action, Drama, Sci-Fi | 25 April 1997 (USA) 
A volcano erupts in downtown Los Angeles, threatening to destroy the city.
EN

Director:

Mick Jackson

Writers:

Jerome Armstrong (story), Jerome Armstrong (screenplay) | 1 more credit »

5.5/10
71,115

Directed byMick Jackson
Produced byAndrew Z. Davis
Neal H. Moritz
Lauren Shuler Donner
Written byJerome Armstrong
Billy Ray
Starring
Music byAlan Silvestri
CinematographyTheo van de Sande
Edited byDon Brochu
Michael Tronick
Production
company
Moritz Original
Shuler Donner/Donner Productions
Distributed by20th Century Fox
Release date
  • April 25, 1997
Running time
104 minutes
CountryUnited States
LanguageEnglish
Budget$90 million[1]
Box office$122.8 million[1]



Volcano 1997 x264 720p Esub BluRay Dual Audio English Hindi GOPI SAHI

Format                         : Matroska
Format version                 : Version 4
File size                      : 828 MiB
Duration                       : 1 h 43 min
Overall bit rate               : 1 115 kb/s
Movie name                     : Volcano 1997 GOPI SAHI
Encoded date                   : UTC 2020-09-29 02:33:03

Video
ID                             : 1
Format                         : AVC
Format/Info                    : Advanced Video Codec
Format profile                 : [email protected]
Format settings                : CABAC / 5 Ref Frames
Format settings, CABAC         : Yes
Format settings, Reference fra : 5 frames
Codec ID                       : V_MPEG4/ISO/AVC
Duration                       : 1 h 43 min
Bit rate                       : 899 kb/s
Width                          : 1 280 pixels
Height                         : 720 pixels
Display aspect ratio           : 16:9
Frame rate mode                : Constant
Frame rate                     : 23.976 (24000/1001) FPS
Color space                    : YUV
Chroma subsampling             : 4:2:0
Bit depth                      : 8 bits
Scan type                      : Progressive
Bits/(Pixel*Frame)             : 0.041
Stream size                    : 668 MiB (81%)
Title                          : GOPI SAHI
Writing library                : x264 core 157 r2935 545de2f

Audio #1
ID                             : 2
Format                         : AAC LC
Format/Info                    : Advanced Audio Codec Low Complexity
Codec ID                       : A_AAC-2
Duration                       : 1 h 43 min
Bit rate                       : 96.0 kb/s
Channel(s)                     : 2 channels
Channel layout                 : L R
Sampling rate                  : 48.0 kHz
Frame rate                     : 46.875 FPS (1024 SPF)
Compression mode               : Lossy
Delay relative to video        : -21 ms
Stream size                    : 71.6 MiB (9%)
Title                          : GOPI SAHI
Language                       : Hindi
Default                        : Yes
Forced                         : No

Audio #2
ID                             : 3
Format                         : AAC LC
Format/Info                    : Advanced Audio Codec Low Complexity
Codec ID                       : A_AAC-2
Duration                       : 1 h 43 min
Bit rate                       : 96.0 kb/s
Channel(s)                     : 2 channels
Channel layout                 : L R
Sampling rate                  : 48.0 kHz
Frame rate                     : 46.875 FPS (1024 SPF)
Compression mode               : Lossy
Delay relative to video        : -21 ms
Stream size                    : 71.7 MiB (9%)
Title                          : GOPI SAHI
Language                       : English
Default                        : No
Forced                         : No

Text
ID                             : 4
Format                         : PGS
Muxing mode                    : zlib
Codec ID                       : S_HDMV/PGS
Codec ID/Info                  : Picture based subtitle format used on BDs/HD-DVDs
Duration                       : 1 h 40 min
Bit rate                       : 74.4 kb/s
Count of elements              : 3897
Stream size                    : 53.6 MiB (6%)
Title                          : GOPI SAHI
Language                       : English
Default                        : Yes
Forced                         : Yes

Menu
00:00:00.000                   : :Chapter 1
00:11:41.743                   : :Chapter 2
00:21:57.358                   : :Chapter 3
00:30:05.554                   : :Chapter 4
00:42:56.282                   : :Chapter 5
00:53:30.749                   : :Chapter 6
01:02:27.827                   : :Chapter 7
01:10:18.840                   : :Chapter 8
01:21:46.819                   : :Chapter 9
01:33:04.662                   : :Chapter 10


















Post a Comment

0 Comments