Zathura A Space Adventure 2005 x264 720p Esub BluRay Dual Audio English Hindi GOPI SAHI

Zathura: A Space Adventure (2005)


Two young brothers are drawn into an intergalactic adventure when their house is hurled through the depths of space by the magical board game they are playing.
EN

Director:

Jon Favreau

Writers:

Chris Van Allsburg (book), David Koepp (screenplay) | 1 more credit »
6.2/10

Directed byJon Favreau
Produced by
Screenplay by
Based onZathura
by Chris Van Allsburg
Starring
Music byJohn Debney
CinematographyGuillermo Navarro
Edited byDan Lebental
Production
companies
Distributed bySony Pictures Releasing
Release date
  • November 11, 2005 (United States)
Running time
101 minutes
CountryUnited States
LanguageEnglish
Budget$65 million[1]
Box office$65.1 million[1]



Zathura A Space Adventure 2005 x264 720p Esub BluRay Dual Audio English Hindi GOPI SAHI

Format                         : Matroska
Format version                 : Version 4
File size                      : 805 MiB
Duration                       : 1 h 41 min
Overall bit rate               : 1 111 kb/s
Movie name                     : Zathura A Space Adventure 2005 GOPI SAHI
Encoded date                   : UTC 2020-09-23 06:21:08

Video
ID                             : 1
Format                         : AVC
Format/Info                    : Advanced Video Codec
Format profile                 : [email protected]
Format settings                : CABAC / 5 Ref Frames
Format settings, CABAC         : Yes
Format settings, Reference fra : 5 frames
Codec ID                       : V_MPEG4/ISO/AVC
Duration                       : 1 h 41 min
Bit rate                       : 899 kb/s
Width                          : 1 280 pixels
Height                         : 694 pixels
Display aspect ratio           : 1.85:1
Frame rate mode                : Constant
Frame rate                     : 23.976 (24000/1001) FPS
Color space                    : YUV
Chroma subsampling             : 4:2:0
Bit depth                      : 8 bits
Scan type                      : Progressive
Bits/(Pixel*Frame)             : 0.042
Stream size                    : 651 MiB (81%)
Title                          : GOPI SAHI
Writing library                : x264 core 157 r2935 545de2f

Audio #1
ID                             : 2
Format                         : AAC LC
Format/Info                    : Advanced Audio Codec Low Complexity
Codec ID                       : A_AAC-2
Duration                       : 1 h 41 min
Bit rate                       : 96.0 kb/s
Channel(s)                     : 2 channels
Channel layout                 : L R
Sampling rate                  : 48.0 kHz
Frame rate                     : 46.875 FPS (1024 SPF)
Compression mode               : Lossy
Delay relative to video        : 1 s 679 ms
Stream size                    : 69.9 MiB (9%)
Title                          : GOPI SAHI
Language                       : Hindi
Default                        : Yes
Forced                         : No

Audio #2
ID                             : 3
Format                         : AAC LC
Format/Info                    : Advanced Audio Codec Low Complexity
Codec ID                       : A_AAC-2
Duration                       : 1 h 41 min
Bit rate                       : 96.0 kb/s
Channel(s)                     : 2 channels
Channel layout                 : L R
Sampling rate                  : 48.0 kHz
Frame rate                     : 46.875 FPS (1024 SPF)
Compression mode               : Lossy
Delay relative to video        : -21 ms
Stream size                    : 69.9 MiB (9%)
Title                          : GOPI SAHI
Language                       : English
Default                        : No
Forced                         : No

Text
ID                             : 4
Format                         : PGS
Muxing mode                    : zlib
Codec ID                       : S_HDMV/PGS
Codec ID/Info                  : Picture based subtitle format used on BDs/HD-DVDs
Duration                       : 1 h 33 min
Bit rate                       : 39.3 kb/s
Count of elements              : 1912
Stream size                    : 26.4 MiB (3%)
Title                          : GOPI SAHI
Language                       : English
Default                        : Yes
Forced                         : No