A Suitable Boy 2020 S01 E01 06 x264 720p Esub NetFLix Hindi GOPI SAHI

 

A Suitable Boy 

 
 
A vast, panoramic tale charting the fortunes of four large families and exploring India and its rich and varied culture at a crucial point in its history.
EN
 
 
6.3/10
911

 


Format                         : Matroska
Format version                 : Version 4
File size                      : 322 MiB
Duration                       : 59 min 12 s
Overall bit rate               : 761 kb/s
Encoded date                   : UTC 2020-10-23 15:18:33
Writing application            : mkvmerge v51.0.0 ('I Wish') 64-bit
Writing library                : libebml v1.4.0 + libmatroska v1.6.2

Video
ID                             : 1
Format                         : AVC
Format/Info                    : Advanced Video Codec
Format profile                 : [email protected]
Format settings                : CABAC / 4 Ref Frames
Format settings, CABAC         : Yes
Format settings, Reference fra : 4 frames
Codec ID                       : V_MPEG4/ISO/AVC
Duration                       : 59 min 12 s
Bit rate                       : 650 kb/s
Width                          : 1 280 pixels
Height                         : 640 pixels
Display aspect ratio           : 2.000
Frame rate mode                : Constant
Frame rate                     : 23.976 (24000/1001) FPS
Color space                    : YUV
Chroma subsampling             : 4:2:0
Bit depth                      : 8 bits
Scan type                      : Progressive
Bits/(Pixel*Frame)             : 0.033
Stream size                    : 268 MiB (83%)
Writing library                : x264 core 142 r2479 dd79a61

Audio
ID                             : 2
Format                         : AAC LC
Format/Info                    : Advanced Audio Codec Low Complexity
Codec ID                       : A_AAC-2
Duration                       : 59 min 12 s
Bit rate                       : 126 kb/s
Channel(s)                     : 2 channels
Channel layout                 : L R
Sampling rate                  : 44.1 kHz
Frame rate                     : 43.066 FPS (1024 SPF)
Compression mode               : Lossy
Delay relative to video        : -105 ms
Stream size                    : 53.2 MiB (17%)
Language                       : Hindi
Default                        : Yes
Forced                         : No

Text #1
ID                             : 3
Format                         : ASS
Codec ID                       : S_TEXT/ASS
Codec ID/Info                  : Advanced Sub Station Alpha
Duration                       : 56 min 24 s
Bit rate                       : 124 b/s
Count of elements              : 754
Compression mode               : Lossless
Stream size                    : 51.3 KiB (0%)
Language                       : English
Default                        : No
Forced                         : No

Text #2
ID                             : 4
Format                         : UTF-8
Codec ID                       : S_TEXT/UTF8
Codec ID/Info                  : UTF-8 Plain Text
Duration                       : 58 min 27 s
Bit rate                       : 154 b/s
Count of elements              : 794
Stream size                    : 66.0 KiB (0%)
Language                       : Hindi
Default                        : Yes
Forced                         : No


 
 

 MAGNET

TORRENT


MULTIUP

DWONLOAD AUTO START IN 20 SEC WAIT

DWONLOAD AUTO START IN 20 SEC WAIT

GDRIVE

CLOUDRU

MEDIAFIRE

ONLINE 720P