All About Nina 2018 x264 720p Esub NetFLix Dual Audio Hindi English GOPI SAHI

All About Nina (2018)


 
Nina is a stand-up comedian who sees her life turned upside down when she meets Rafe.
EN

Director:

Eva Vives

Writer:

Eva Vives

6.0/10
1,935
Directed byEva Vives
Produced by
  • Eric B. Fleischman
  • Natalie Qasabian
  • Sean Tabibian
  • Eva Vives
Written byEva Vives
Starring
Music byJohn Dragonetti
CinematographyThomas Scott Stanton
Edited by
Production
company
  • Diablo Entertainment
  • Malibu Films
  • Candela Films
Distributed byThe Orchard
Release date
  • April 22, 2018 (Tribeca)
  • September 28, 2018 (United States)
Running time
97 minutes
CountryUnited States
LanguageEnglish
Box office$100,335[1]



All About Nina 2018 GOPI SAHI

Format                         : Matroska
Format version                 : Version 4
File size                      : 823 MiB
Duration                       : 1 h 40 min
Overall bit rate               : 1 140 kb/s
Movie name                     : All About Nina 2018 GOPI SAHI
Encoded date                   : UTC 2020-10-02 09:18:14
Writing application            : mkvmerge v46.0.0 ('No Deeper Escape') 32-bit

Video
ID                             : 1
Format                         : AVC
Format/Info                    : Advanced Video Codec
Format profile                 : [email protected]
Format settings                : CABAC / 5 Ref Frames
Format settings, CABAC         : Yes
Format settings, Reference fra : 5 frames
Codec ID                       : V_MPEG4/ISO/AVC
Duration                       : 1 h 40 min
Bit rate                       : 899 kb/s
Width                          : 1 280 pixels
Height                         : 544 pixels
Display aspect ratio           : 2.35:1
Frame rate mode                : Constant
Frame rate                     : 23.976 (24000/1001) FPS
Color space                    : YUV
Chroma subsampling             : 4:2:0
Bit depth                      : 8 bits
Scan type                      : Progressive
Bits/(Pixel*Frame)             : 0.054
Stream size                    : 649 MiB (79%)
Title                          : GOPI SAHI
Writing library                : x264 core 157 r2935 545de2f

Audio #1
ID                             : 2
Format                         : AAC LC
Format/Info                    : Advanced Audio Codec Low Complexity
Codec ID                       : A_AAC-2
Duration                       : 1 h 40 min
Bit rate                       : 96.0 kb/s
Channel(s)                     : 2 channels
Channel layout                 : L R
Sampling rate                  : 48.0 kHz
Frame rate                     : 46.875 FPS (1024 SPF)
Compression mode               : Lossy
Delay relative to video        : 5 ms
Stream size                    : 69.5 MiB (8%)
Title                          : GOPI SAHI
Language                       : Hindi
Default                        : Yes
Forced                         : No

Audio #2
ID                             : 3
Format                         : AAC LC
Format/Info                    : Advanced Audio Codec Low Complexity
Codec ID                       : A_AAC-2
Duration                       : 1 h 40 min
Bit rate                       : 96.0 kb/s
Channel(s)                     : 2 channels
Channel layout                 : L R
Sampling rate                  : 48.0 kHz
Frame rate                     : 46.875 FPS (1024 SPF)
Compression mode               : Lossy
Delay relative to video        : 5 ms
Stream size                    : 69.5 MiB (8%)
Title                          : GOPI SAHI
Language                       : English
Default                        : No
Forced                         : No

Text #1
ID                             : 4
Format                         : PGS
Muxing mode                    : zlib
Codec ID                       : S_HDMV/PGS
Codec ID/Info                  : Picture based subtitle format used on BDs/HD-DVDs
Duration                       : 1 h 40 min
Bit rate                       : 37.8 kb/s
Count of elements              : 3836
Stream size                    : 27.2 MiB (3%)
Title                          : GOPI SAHI
Language                       : Hindi
Default                        : No
Forced                         : No

Text #2
ID                             : 5
Format                         : PGS
Muxing mode                    : zlib
Codec ID                       : S_HDMV/PGS
Codec ID/Info                  : Picture based subtitle format used on BDs/HD-DVDs
Duration                       : 1 h 36 min
Bit rate                       : 44.9 kb/s
Count of elements              : 3984
Stream size                    : 30.9 MiB (4%)
Title                          : GOPI SAHI
Language                       : English
Default                        : No
Forced                         : No





Post a Comment

0 Comments