Along Came a Spider 2001 x264 720p Esub BluRay Dual Audio English Hindi GOPI SAHI

Along Came a Spider (2001) 


When a congressman's daughter under Secret Service protection is kidnapped from a private school, detective Alex Cross investigates the case even though he's recovering from the loss of his partner.
EN

Director:

Lee Tamahori

Writers:

James Patterson (novel), Marc Moss (screenplay)

6.4/10
75,305

Directed byLee Tamahori
Produced by
Screenplay byMarc Moss
Based onAlong Came a Spider
by James Patterson
Starring
Music byJerry Goldsmith
CinematographyMatthew F. Leonetti
Edited byNeil Travis
Production
company
Distributed byParamount Pictures
Release date
  • April 6, 2001
Running time
103 minutes
CountryUnited States
LanguageEnglish
Budget$60 million[1]
Box office$105.2 million[2]
Along Came a Spider 2001 x264 720p Esub BluRay Dual Audio English Hindi GOPI SAHI

Format                         : Matroska
Format version                 : Version 4
File size                      : 815 MiB
Duration                       : 1 h 43 min
Overall bit rate               : 1 101 kb/s
Movie name                     : Along Came a Spider 2001 GOPI SAHI
Encoded date                   : UTC 2020-09-30 09:05:55
Writing application            : mkvmerge v46.0.0 ('No Deeper Escape') 32-bit
Writing library                : libebml v1.3.10 + libmatroska v1.5.2
Attachments                    : A.C.A.S.jpg

Video
ID                             : 1
Format                         : AVC
Format/Info                    : Advanced Video Codec
Format profile                 : [email protected]
Format settings                : CABAC / 5 Ref Frames
Format settings, CABAC         : Yes
Format settings, Reference fra : 5 frames
Codec ID                       : V_MPEG4/ISO/AVC
Duration                       : 1 h 43 min
Bit rate                       : 899 kb/s
Width                          : 1 280 pixels
Height                         : 546 pixels
Display aspect ratio           : 2.35:1
Frame rate mode                : Constant
Frame rate                     : 23.976 (24000/1001) FPS
Color space                    : YUV
Chroma subsampling             : 4:2:0
Bit depth                      : 8 bits
Scan type                      : Progressive
Bits/(Pixel*Frame)             : 0.054
Stream size                    : 663 MiB (81%)
Title                          : GOPI SAHI
Writing library                : x264 core 157 r2935 545de2f

Audio #1
ID                             : 2
Format                         : AAC LC
Format/Info                    : Advanced Audio Codec Low Complexity
Codec ID                       : A_AAC-2
Duration                       : 1 h 43 min
Bit rate                       : 96.0 kb/s
Channel(s)                     : 2 channels
Channel layout                 : L R
Sampling rate                  : 48.0 kHz
Frame rate                     : 46.875 FPS (1024 SPF)
Compression mode               : Lossy
Delay relative to video        : 26 ms
Stream size                    : 71.2 MiB (9%)
Title                          : GOPI SAHI
Language                       : Hindi
Default                        : Yes
Forced                         : No

Audio #2
ID                             : 3
Format                         : AAC LC
Format/Info                    : Advanced Audio Codec Low Complexity
Codec ID                       : A_AAC-2
Duration                       : 1 h 43 min
Bit rate                       : 96.0 kb/s
Channel(s)                     : 2 channels
Channel layout                 : L R
Sampling rate                  : 48.0 kHz
Frame rate                     : 46.875 FPS (1024 SPF)
Compression mode               : Lossy
Delay relative to video        : -21 ms
Stream size                    : 71.1 MiB (9%)
Title                          : GOPI SAHI
Language                       : English
Default                        : No
Forced                         : No

Text #1
ID                             : 4
Format                         : PGS
Muxing mode                    : zlib
Codec ID                       : S_HDMV/PGS
Codec ID/Info                  : Picture based subtitle format used on BDs/HD-DVDs
Duration                       : 1 h 40 min
Bit rate                       : 566 b/s
Count of elements              : 58
Stream size                    : 416 KiB (0%)
Title                          : GOPI SAHI
Language                       : Hindi
Default                        : Yes
Forced                         : Yes

Text #2
ID                             : 5
Format                         : PGS
Muxing mode                    : zlib
Codec ID                       : S_HDMV/PGS
Codec ID/Info                  : Picture based subtitle format used on BDs/HD-DVDs
Duration                       : 1 h 36 min
Bit rate                       : 30.0 kb/s
Count of elements              : 2064
Stream size                    : 20.7 MiB (3%)
Title                          : GOPI SAHI
Language                       : English
Default                        : No
Forced                         : No

Menu
00:00:00.000                   : :00:00:00.000
00:05:16.525                   : :00:05:16.441
00:13:18.965                   : :00:13:18.965
00:23:55.476                   : :00:23:55.476
00:30:16.231                   : :00:30:16.231
00:40:12.660                   : :00:40:12.660
00:50:04.001                   : :00:50:04.001
00:59:12.799                   : :00:59:12.799
01:10:51.664                   : :01:10:51.664
01:18:08.309                   : :01:18:08.309
01:22:55.679                   : :01:22:55.679
01:36:03.383                   : :01:36:03.383





Post a Comment

0 Comments