American Pie 2 2001 x264 720p Esub BluRay Dual Audio English Hindi GOPI SAHI

American Pie 2 (2001)

 
R | | Comedy | 10 August 2001 (USA) 
 
Jim and his friends are now in college, and they decide to meet up at the beach house for some fun.
EN

Director:

J.B. Rogers

Writers:

Adam Herz (characters), David H. Steinberg (story) | 2 more credits »
 
6.4/10
236,939
 
Directed byJames B. Rogers
Produced byChris Moore
Warren Zide
Screenplay byAdam Herz
Story byAdam Herz
David H. Steinberg
Based onCharacters
by Adam Herz
Starring
Music byDavid Lawrence
CinematographyMark Irwin
Edited byLarry Madaras
Stuart H. Pappé
Production
company
Distributed byUniversal Pictures
Release date
August 10, 2001
Running time
100 minutes[1]
CountryUnited States
LanguageEnglish
Budget$30 million[2]
Box office$287.6 million[2]  


American Pie 2 2001 GOPISAHI

Format                         : Matroska
Format version                 : Version 4
File size                      : 1 024 MiB
Duration                       : 1 h 50 min
Overall bit rate               : 1 294 kb/s
Movie name                     : +18 American Pie 2 2001 GOPISAHI

Video
ID                             : 1
Format                         : AVC
Format/Info                    : Advanced Video Codec
Format profile                 : [email protected]
Format settings                : CABAC / 9 Ref Frames
Format settings, CABAC         : Yes
Format settings, Reference fra : 9 frames
Codec ID                       : V_MPEG4/ISO/AVC
Duration                       : 1 h 50 min
Bit rate                       : 899 kb/s
Width                          : 1 280 pixels
Height                         : 694 pixels
Display aspect ratio           : 1.85:1
Frame rate mode                : Constant
Frame rate                     : 23.976 (24000/1001) FPS
Color space                    : YUV
Chroma subsampling             : 4:2:0
Bit depth                      : 8 bits
Scan type                      : Progressive
Bits/(Pixel*Frame)             : 0.042
Stream size                    : 711 MiB (69%)
Title                          : GOPISAHI
Writing library                : x264 core 157 r2935 545de2f

Audio #1
ID                             : 2
Format                         : AAC LC
Format/Info                    : Advanced Audio Codec Low Complexity
Codec ID                       : A_AAC-2
Duration                       : 1 h 50 min
Bit rate                       : 192 kb/s
Channel(s)                     : 6 channels
Channel layout                 : C L R Ls Rs LFE
Sampling rate                  : 48.0 kHz
Frame rate                     : 46.875 FPS (1024 SPF)
Compression mode               : Lossy
Delay relative to video        : -21 ms
Stream size                    : 152 MiB (15%)
Title                          : GOPISAHI
Language                       : Hindi
Default                        : Yes
Forced                         : No

Audio #2
ID                             : 3
Format                         : AAC LC
Format/Info                    : Advanced Audio Codec Low Complexity
Codec ID                       : A_AAC-2
Duration                       : 1 h 50 min
Bit rate                       : 192 kb/s
Channel(s)                     : 6 channels
Channel layout                 : C L R Ls Rs LFE
Sampling rate                  : 48.0 kHz
Frame rate                     : 46.875 FPS (1024 SPF)
Compression mode               : Lossy
Delay relative to video        : 19 ms
Stream size                    : 152 MiB (15%)
Title                          : GOPISAHI
Language                       : English
Default                        : No
Forced                         : No

Text
ID                             : 4
Format                         : VobSub
Muxing mode                    : zlib
Codec ID                       : S_VOBSUB
Codec ID/Info                  : Picture based subtitle format used on DVDs
Duration                       : 1 h 43 min
Bit rate                       : 12.9 kb/s
Count of elements              : 1642
Stream size                    : 9.57 MiB (1%)
Title                          : GOPISAHI
Language                       : English
Default                        : Yes
Forced                         : Yes

Menu
00:00:00.000                   : en:00:00:00.000
00:06:15.292                   : en:00:06:15.292
00:08:33.930                   : en:00:08:33.930
00:15:53.661                   : en:00:15:53.661
00:20:22.012                   : en:00:20:22.012
00:22:41.819                   : en:00:22:41.819
00:27:22.224                   : en:00:27:22.224
00:34:31.278                   : en:00:34:31.278
00:38:09.204                   : en:00:38:09.204
00:41:33.408                   : en:00:41:33.408
00:44:11.107                   : en:00:44:11.107
00:57:56.139                   : en:00:57:56.139
01:05:34.305                   : en:01:05:34.305
01:14:42.228                   : en:01:14:42.228
01:18:09.935                   : en:01:18:09.935
01:24:02.829                   : en:01:24:02.829
01:28:26.301                   : en:01:28:26.301
01:36:27.448                   : en:01:36:27.448
01:41:07.603                   : en:01:41:07.603
01:44:04.613                   : en:01:44:04.613




















Post a Comment

0 Comments