American Pie Presents Beta House 2007 TC Cut x264 720p Esub BluRay Dual Audio English Hindi GOPI SAHI\

American Pie Presents: Beta House (2007)



Beta House (original title)
 
Erik and Cooze start college and pledge the Beta House fraternity, presided over by none other than legendary Dwight Stifler.
EN

Director:

Andrew Waller

Writers:

Erik Lindsay, Adam Herz (characters)

5.3/10
60,451

Directed byAndrew Waller
Produced byW. K. Border
Written byErik Lindsay
Based onCharacters
by Adam Herz
Starring
Music byJeff Cardoni
CinematographyGerald Packer
Edited byRod Dean
Andrew Somers
Production
company
Distributed byUniversal Pictures
Release date
  • December 26, 2007
Running time
87 minutes
CountryUnited States
LanguageEnglish
Budgetless than $10 million[1]
Box office$18.8 million[2]



American Pie Presents Beta House 2007 TC Cut GOPI SAHI

Format version                 : Version 4
File size                      : 700 MiB
Duration                       : 1 h 26 min
Overall bit rate               : 1 125 kb/s
Movie name                     : American Pie Presents Beta House 2007 TC Cut GOPI SAHI
Encoded date                   : UTC 2020-09-29 13:30:11
Writing application            : mkvmerge v46.0.0 ('No Deeper Escape') 32-bit
Writing library                : libebml v1.3.10 + libmatroska v1.5.2
Attachments                    : Hammer Logo.jpg

Video
ID                             : 1
Format                         : AVC
Format/Info                    : Advanced Video Codec
Format profile                 : [email protected]
Format settings                : CABAC / 5 Ref Frames
Format settings, CABAC         : Yes
Format settings, Reference fra : 5 frames
Codec ID                       : V_MPEG4/ISO/AVC
Duration                       : 1 h 26 min
Bit rate                       : 899 kb/s
Width                          : 1 280 pixels
Height                         : 720 pixels
Display aspect ratio           : 16:9
Frame rate mode                : Constant
Frame rate                     : 23.976 (24000/1001) FPS
Color space                    : YUV
Chroma subsampling             : 4:2:0
Bit depth                      : 8 bits
Scan type                      : Progressive
Bits/(Pixel*Frame)             : 0.041
Stream size                    : 558 MiB (80%)
Title                          : GOPI SAHI
Writing library                : x264 core 157 r2935 545de2f

Audio #1
ID                             : 2
Format                         : AAC LC
Format/Info                    : Advanced Audio Codec Low Complexity
Codec ID                       : A_AAC-2
Duration                       : 1 h 26 min
Bit rate                       : 96.0 kb/s
Channel(s)                     : 2 channels
Channel layout                 : L R
Sampling rate                  : 48.0 kHz
Frame rate                     : 46.875 FPS (1024 SPF)
Compression mode               : Lossy
Delay relative to video        : -6 ms
Stream size                    : 59.9 MiB (9%)
Title                          : GOPI SAHI
Language                       : Hindi
Default                        : Yes
Forced                         : No

Audio #2
ID                             : 3
Format                         : AAC LC
Format/Info                    : Advanced Audio Codec Low Complexity
Codec ID                       : A_AAC-2
Duration                       : 1 h 26 min
Bit rate                       : 96.0 kb/s
Channel(s)                     : 2 channels
Channel layout                 : L R
Sampling rate                  : 48.0 kHz
Frame rate                     : 46.875 FPS (1024 SPF)
Compression mode               : Lossy
Delay relative to video        : -21 ms
Stream size                    : 59.9 MiB (9%)
Title                          : GOPI SAHI
Language                       : English
Default                        : No
Forced                         : No

Text #1
ID                             : 4
Format                         : PGS
Muxing mode                    : zlib
Codec ID                       : S_HDMV/PGS
Codec ID/Info                  : Picture based subtitle format used on BDs/HD-DVDs
Duration                       : 1 h 26 min
Bit rate                       : 25.7 kb/s
Count of elements              : 2198
Stream size                    : 15.9 MiB (2%)
Title                          : GOPI SAHI
Language                       : Hindi
Default                        : No
Forced                         : No

Text #2
ID                             : 5
Format                         : PGS
Muxing mode                    : zlib
Codec ID                       : S_HDMV/PGS
Codec ID/Info                  : Picture based subtitle format used on BDs/HD-DVDs
Duration                       : 1 h 20 min
Bit rate                       : 42.1 kb/s
Count of elements              : 2704
Stream size                    : 24.1 MiB (3%)
Title                          : GOPI SAHI
Language                       : English
Default                        : No
Forced                         : No





Post a Comment

0 Comments