American Pie Presents The Book of Love 2009 TC Cut x264 720p Esub BluRay Dual Audio English Hindi GOPI SAHI

American Pie Presents: The Book of Love (2009)


 
Ten years after the first American Pie movie, three new hapless virgins discover the Bible hidden in the school library at East Great Falls High.
EN

Director:

John Putch

Writers:

David H. Steinberg, Adam Herz (characters)

4.8/10
43,218

Directed byJohn Putch
Produced byMike Elliott
Written byDavid H. Steinberg
Based onCharacters
by Adam Herz
Starring
Music byDavid Lawrence
CinematographyRoss Berryman
Edited byJohn Gilbert
Production
company
Distributed byUniversal Studios
Release date
December 22, 2009
Running time
96 minutes[1]
CountryUnited States[1]
LanguageEnglish


American Pie Presents The Book of Love 2009 TC Cut GOPI SAHI

Format                         : Matroska
Format version                 : Version 4
File size                      : 774 MiB
Duration                       : 1 h 37 min
Overall bit rate               : 1 110 kb/s
Movie name                     : American Pie Presents The Book of Love 2009 TC Cut GOPI SAHI
Encoded date                   : UTC 2020-09-28 10:06:06
Attachments                    : Hammer Logo.jpg

Video
ID                             : 1
Format                         : AVC
Format/Info                    : Advanced Video Codec
Format profile                 : [email protected]
Format settings                : CABAC / 5 Ref Frames
Format settings, CABAC         : Yes
Format settings, Reference fra : 5 frames
Codec ID                       : V_MPEG4/ISO/AVC
Duration                       : 1 h 37 min
Bit rate                       : 899 kb/s
Width                          : 1 280 pixels
Height                         : 720 pixels
Display aspect ratio           : 16:9
Frame rate mode                : Constant
Frame rate                     : 23.976 (24000/1001) FPS
Color space                    : YUV
Chroma subsampling             : 4:2:0
Bit depth                      : 8 bits
Scan type                      : Progressive
Bits/(Pixel*Frame)             : 0.041
Stream size                    : 626 MiB (81%)
Title                          : GOPI SAHI
Writing library                : x264 core 157 r2935 545de2f

Audio #1
ID                             : 2
Format                         : AAC LC
Format/Info                    : Advanced Audio Codec Low Complexity
Codec ID                       : A_AAC-2
Duration                       : 1 h 37 min
Bit rate                       : 96.0 kb/s
Channel(s)                     : 2 channels
Channel layout                 : L R
Sampling rate                  : 48.0 kHz
Frame rate                     : 46.875 FPS (1024 SPF)
Compression mode               : Lossy
Delay relative to video        : -11 ms
Stream size                    : 67.2 MiB (9%)
Title                          : GOPI SAHI
Language                       : Hindi
Default                        : Yes
Forced                         : No

Audio #2
ID                             : 3
Format                         : AAC LC
Format/Info                    : Advanced Audio Codec Low Complexity
Codec ID                       : A_AAC-2
Duration                       : 1 h 37 min
Bit rate                       : 96.0 kb/s
Channel(s)                     : 2 channels
Channel layout                 : L R
Sampling rate                  : 48.0 kHz
Frame rate                     : 46.875 FPS (1024 SPF)
Compression mode               : Lossy
Delay relative to video        : -21 ms
Stream size                    : 67.2 MiB (9%)
Title                          : GOPI SAHI
Language                       : English
Default                        : No
Forced                         : No

Text #1
ID                             : 4
Format                         : PGS
Muxing mode                    : zlib
Codec ID                       : S_HDMV/PGS
Codec ID/Info                  : Picture based subtitle format used on BDs/HD-DVDs
Duration                       : 1 h 31 min
Bit rate                       : 389 b/s
Count of elements              : 46
Stream size                    : 262 KiB (0%)
Title                          : GOPI SAHI
Language                       : Hindi
Default                        : Yes
Forced                         : No

Text #2
ID                             : 5
Format                         : PGS
Muxing mode                    : zlib
Codec ID                       : S_HDMV/PGS
Codec ID/Info                  : Picture based subtitle format used on BDs/HD-DVDs
Duration                       : 1 h 34 min
Bit rate                       : 36.6 kb/s
Count of elements              : 2812
Stream size                    : 24.6 MiB (3%)
Title                          : GOPI SAHI
Language                       : English
Default                        : No
Forced                         : No





Post a Comment

0 Comments