American Pie Presents The Naked Mile 2006 Unrated x264 720p Esub BluRay Dual Audio English Hindi GOPI SAHI

American Pie Presents: The Naked Mile (2006)

The Naked Mile (original title)
When Erik Stifler gets a free pass to do whatever he wants from his girlfriend, he and his two best friends head to see his cousin Dwight for the Naked Mile and a weekend they will never forget.
EN

Director:

Joe Nussbaum

Writers:

Adam Herz (characters), Erik Lindsay
5.1/10
64,653

Directed byJoe Nussbaum
Produced byW. K. Border
Written byEric Lindsay
Based onCharacters
by Adam Herz
Starring
Music byJeff Cardoni
CinematographyEric Haase
Edited byDanny Saphire
Production
company
Distributed by
Release date
December 19, 2006
Running time
98 minutes
CountryUnited States
LanguageEnglish
Budget$15 million[citation needed]
Box office$27.5 million (sales)[1]



American Pie Presents The Naked Mile 2006 Unrated GOPI SAHI

Format                         : Matroska
Format version                 : Version 4
File size                      : 807 MiB
Duration                       : 1 h 41 min
Overall bit rate               : 1 108 kb/s
Movie name                     : American Pie Presents The Naked Mile 2006 Unrated GOPI SAHI
Encoded date                   : UTC 2020-09-29 20:41:22

Video
ID                             : 1
Format                         : AVC
Format/Info                    : Advanced Video Codec
Format profile                 : [email protected]
Format settings                : CABAC / 5 Ref Frames
Format settings, CABAC         : Yes
Format settings, Reference fra : 5 frames
Codec ID                       : V_MPEG4/ISO/AVC
Duration                       : 1 h 41 min
Bit rate                       : 899 kb/s
Width                          : 1 280 pixels
Height                         : 694 pixels
Display aspect ratio           : 1.85:1
Frame rate mode                : Constant
Frame rate                     : 23.976 (24000/1001) FPS
Color space                    : YUV
Chroma subsampling             : 4:2:0
Bit depth                      : 8 bits
Scan type                      : Progressive
Bits/(Pixel*Frame)             : 0.042
Stream size                    : 655 MiB (81%)
Title                          : GOPI SAHI
Writing library                : x264 core 157 r2935 545de2f

Audio #1
ID                             : 2
Format                         : AAC LC
Format/Info                    : Advanced Audio Codec Low Complexity
Codec ID                       : A_AAC-2
Duration                       : 1 h 41 min
Bit rate                       : 96.0 kb/s
Channel(s)                     : 2 channels
Channel layout                 : L R
Sampling rate                  : 48.0 kHz
Frame rate                     : 46.875 FPS (1024 SPF)
Compression mode               : Lossy
Delay relative to video        : 855 ms
Stream size                    : 70.1 MiB (9%)
Title                          : GOPI SAHI
Language                       : Hindi
Default                        : Yes
Forced                         : No

Audio #2
ID                             : 3
Format                         : AAC LC
Format/Info                    : Advanced Audio Codec Low Complexity
Codec ID                       : A_AAC-2
Duration                       : 1 h 41 min
Bit rate                       : 96.0 kb/s
Channel(s)                     : 2 channels
Channel layout                 : L R
Sampling rate                  : 48.0 kHz
Frame rate                     : 46.875 FPS (1024 SPF)
Compression mode               : Lossy
Delay relative to video        : -21 ms
Stream size                    : 70.1 MiB (9%)
Title                          : GOPI SAHI
Language                       : English
Default                        : No
Forced                         : No

Text #1
ID                             : 4
Format                         : PGS
Muxing mode                    : zlib
Codec ID                       : S_HDMV/PGS
Codec ID/Info                  : Picture based subtitle format used on BDs/HD-DVDs
Duration                       : 1 h 36 min
Bit rate                       : 777 b/s
Count of elements              : 112
Stream size                    : 550 KiB (0%)
Title                          : GOPI SAHI
Language                       : Hindi
Default                        : Yes
Forced                         : No

Text #2
ID                             : 5
Format                         : PGS
Muxing mode                    : zlib
Codec ID                       : S_HDMV/PGS
Codec ID/Info                  : Picture based subtitle format used on BDs/HD-DVDs
Duration                       : 1 h 38 min
Bit rate                       : 43.8 kb/s
Count of elements              : 3080
Stream size                    : 30.8 MiB (4%)
Title                          : GOPI SAHI
Language                       : English
Default                        : No
Forced                         : No





Post a Comment

0 Comments