Anna Karenina 2012 x264 720p Esub BluRay Dual Audio English Hindi GOPI SAHI

 

Anna Karenina (2012)

 
 
In late-19th-century Russian high society, St. Petersburg aristocrat Anna Karenina enters into a life-changing affair with the dashing Count Alexei Vronsky.
EN

Director:

Joe Wright

Writers:

Tom Stoppard (screenplay), Leo Tolstoy (novel)
 
6.6/10

90,344

Directed byJoe Wright
Produced by
Screenplay byTom Stoppard
Based onAnna Karenina
by Leo Tolstoy
Starring
Music byDario Marianelli
CinematographySeamus McGarvey
Edited byMelanie Ann Oliver
Production
company
Distributed by
Release date
  • 7 September 2012 (United Kingdom)
  • 9 November 2012 (United States)
Running time
130 minutes[1]
Country
  • United Kingdom[2]
  • United States[2]
LanguageEnglish
Budget$40.6 million[3]
Box office$68.9 million[4]

 

 


Anna Karenina 2012 x264 720p Esub BluRay Dual Audio English Hindi GOPI SAHI

Format                         : Matroska
Format version                 : Version 4
File size                      : 1 014 MiB
Duration                       : 2 h 9 min
Overall bit rate               : 1 094 kb/s
Movie name                     : Anna Karenina 2012 GOPI SAHI
Encoded date                   : UTC 2020-10-19 07:25:46
Writing application            : mkvmerge v46.0.0 ('No Deeper Escape') 32-bit
Writing library                : libebml v1.3.10 + libmatroska v1.5.2

Video
ID                             : 1
Format                         : AVC
Format/Info                    : Advanced Video Codec
Format profile                 : [email protected]
Format settings                : CABAC / 5 Ref Frames
Format settings, CABAC         : Yes
Format settings, Reference fra : 5 frames
Codec ID                       : V_MPEG4/ISO/AVC
Duration                       : 2 h 9 min
Bit rate                       : 899 kb/s
Width                          : 1 280 pixels
Height                         : 536 pixels
Display aspect ratio           : 2.40:1
Frame rate mode                : Constant
Frame rate                     : 23.976 (24000/1001) FPS
Color space                    : YUV
Chroma subsampling             : 4:2:0
Bit depth                      : 8 bits
Scan type                      : Progressive
Bits/(Pixel*Frame)             : 0.055
Stream size                    : 833 MiB (82%)
Title                          : GOPI SAHI
Writing library                : x264 core 157 r2935 545de2f

Audio #1
ID                             : 2
Format                         : AAC LC
Format/Info                    : Advanced Audio Codec Low Complexity
Codec ID                       : A_AAC-2
Duration                       : 2 h 9 min
Bit rate                       : 96.0 kb/s
Channel(s)                     : 2 channels
Channel layout                 : L R
Sampling rate                  : 48.0 kHz
Frame rate                     : 46.875 FPS (1024 SPF)
Compression mode               : Lossy
Delay relative to video        : 854 ms
Stream size                    : 89.3 MiB (9%)
Title                          : GOPI SAHI
Language                       : Hindi
Default                        : Yes
Forced                         : No

Audio #2
ID                             : 3
Format                         : AAC LC
Format/Info                    : Advanced Audio Codec Low Complexity
Codec ID                       : A_AAC-2
Duration                       : 2 h 9 min
Bit rate                       : 96.0 kb/s
Channel(s)                     : 2 channels
Channel layout                 : L R
Sampling rate                  : 48.0 kHz
Frame rate                     : 46.875 FPS (1024 SPF)
Compression mode               : Lossy
Delay relative to video        : -146 ms
Stream size                    : 88.9 MiB (9%)
Title                          : GOPI SAHI
Language                       : English
Default                        : No
Forced                         : No

Text
ID                             : 4
Format                         : UTF-8
Codec ID                       : S_TEXT/UTF8
Codec ID/Info                  : UTF-8 Plain Text
Duration                       : 1 h 59 min
Bit rate                       : 43 b/s
Count of elements              : 1287
Stream size                    : 38.3 KiB (0%)
Title                          : GOPI SAHI
Language                       : English
Default                        : Yes
Forced                         : No