Batman v Superman- Dawn of Justice 2016 Ult. Edition x264 720p Esub BluRay Dual Audio English Hindi GOPI SAHI

 

Batman v Superman: Dawn of Justice (2016)

 
Fearing that the actions of Superman are left unchecked, Batman takes on the Man of Steel, while the world wrestles with what kind of a hero it really needs.
EN

Director:

Zack Snyder
 
6.4/10
615,756
 
 
Directed byZack Snyder
Produced by
Written by
Based onCharacters
from DC Comics
Starring
Music by
CinematographyLarry Fong
Edited byDavid Brenner
Production
companies
Distributed byWarner Bros. Pictures
Release date
Running time
152 minutes[1]
CountryUnited States
LanguageEnglish
Budget$250–300 million[2][3]
Box office$873.6 million[1]

 

Batman v Superman- Dawn of Justice 2016 Ult. Edition x264 720p Esub BluRay Dual Audio English Hindi GOPI SAHI


Format                         : Matroska
Format version                 : Version 4
File size                      : 1.41 GiB
Duration                       : 3 h 2 min
Overall bit rate               : 1 103 kb/s
Movie name                     : Batman v Superman: Dawn of Justice 2016 Ult. Edition GOPI SAHI
Encoded date                   : UTC 2020-10-20 13:52:26

Video
ID                             : 1
Format                         : AVC
Format/Info                    : Advanced Video Codec
Format profile                 : [email protected]
Format settings                : CABAC / 5 Ref Frames
Format settings, CABAC         : Yes
Format settings, Reference fra : 5 frames
Codec ID                       : V_MPEG4/ISO/AVC
Duration                       : 3 h 2 min
Bit rate                       : 899 kb/s
Width                          : 1 280 pixels
Height                         : 534 pixels
Display aspect ratio           : 2.40:1
Frame rate mode                : Constant
Frame rate                     : 23.976 (24000/1001) FPS
Color space                    : YUV
Chroma subsampling             : 4:2:0
Bit depth                      : 8 bits
Scan type                      : Progressive
Bits/(Pixel*Frame)             : 0.055
Stream size                    : 1.15 GiB (81%)
Title                          : GOPI SAHI
Writing library                : x264 core 157 r2935 545de2f


Audio #1
ID                             : 2
Format                         : AAC LC
Format/Info                    : Advanced Audio Codec Low Complexity
Codec ID                       : A_AAC-2
Duration                       : 3 h 2 min
Bit rate                       : 96.0 kb/s
Channel(s)                     : 2 channels
Channel layout                 : L R
Sampling rate                  : 48.0 kHz
Frame rate                     : 46.875 FPS (1024 SPF)
Compression mode               : Lossy
Delay relative to video        : -21 ms
Stream size                    : 126 MiB (9%)
Title                          : GOPI SAHI
Language                       : Hindi
Default                        : Yes
Forced                         : No

Audio #2
ID                             : 3
Format                         : AAC LC
Format/Info                    : Advanced Audio Codec Low Complexity
Codec ID                       : A_AAC-2
Duration                       : 3 h 2 min
Bit rate                       : 96.0 kb/s
Channel(s)                     : 2 channels
Channel layout                 : L R
Sampling rate                  : 48.0 kHz
Frame rate                     : 46.875 FPS (1024 SPF)
Compression mode               : Lossy
Delay relative to video        : -21 ms
Stream size                    : 126 MiB (9%)
Title                          : GOPI SAHI
Language                       : English
Default                        : No
Forced                         : No

Text
ID                             : 4
Format                         : PGS
Muxing mode                    : zlib
Codec ID                       : S_HDMV/PGS
Codec ID/Info                  : Picture based subtitle format used on BDs/HD-DVDs
Duration                       : 3 h 2 min
Bit rate                       : 27.4 kb/s
Count of elements              : 3830
Stream size                    : 35.7 MiB (2%)
Title                          : GOPI SAHI
Language                       : English
Default                        : No
Forced                         : No

Menu
00:00:00.000                   : :Chapter 1
00:10:10.652                   : :Chapter 2
00:27:00.869                   : :Chapter 3
00:37:49.350                   : :Chapter 4
00:46:54.687                   : :Chapter 5
01:02:05.096                   : :Chapter 6
01:14:10.863                   : :Chapter 7
01:28:07.199                   : :Chapter 8
01:41:46.642                   : :Chapter 9
01:53:52.701                   : :Chapter 10
02:02:58.246                   : :Chapter 11
02:15:04.263                   : :Chapter 12
02:27:55.241                   : :Chapter 13
02:36:51.527                   : :Chapter 14
02:48:27.514                   : :Chapter 15
02:54:43.848                   : :Chapter 16