Big Game 2014 Unrated x264 720p Esub BluRay Dual Audio English Hindi GOPI SAHI

 

Big Game (2014) PG-13 | |

  Action, Adventure | 26 June 2015 (USA)

 
A young teenager camping in the woods helps rescue the President of the United States when Air Force One is shot down near his campsite.
EN

Director:

Jalmari Helander

Writers:

Jalmari Helander (screenplay by), Jalmari Helander (based on the original story by) | 1 more credit »
 
5.4/10
30,744
Directed byJalmari Helander
Produced by
  • Petri Jokiranta
  • Will Clarke
  • Andy Mayson
  • Jens Meurer
Written by
  • Jalmari Helander
  • Petri Jokiranta
Starring
Music by
  • Juri Seppä
  • Miska Seppä
CinematographyMika Orasmaa
Edited byIikka Hesse
Production
companies
Distributed by
Release date
  • 5 September 2014 (TIFF)
  • 19 March 2015 (Finland)
  • 26 June 2015 (North America)
Running time
90 minutes[1]
Country
  • Finland
  • United States
  • United Kingdom
  • Germany
Language
  • English
  • Finnish
Budget8.5 million[2]
($10 million)
Box office$7.5 million[3]

 

 

 

Big Game 2014 Unrated x264 720p Esub BluRay Dual Audio English Hindi GOPI SAHI


Format                         : Matroska
Format version                 : Version 4
File size                      : 712 MiB
Duration                       : 1 h 30 min
Overall bit rate               : 1 100 kb/s
Movie name                     : Big Game 2014 Unrated GOPI SAHI
Encoded date                   : UTC 2020-10-10 06:06:40

Video
ID                             : 1
Format                         : AVC
Format/Info                    : Advanced Video Codec
Format profile                 : [email protected]
Format settings                : CABAC / 5 Ref Frames
Format settings, CABAC         : Yes
Format settings, Reference fra : 5 frames
Codec ID                       : V_MPEG4/ISO/AVC
Duration                       : 1 h 30 min
Bit rate                       : 899 kb/s
Width                          : 1 280 pixels
Height                         : 536 pixels
Display aspect ratio           : 2.40:1
Frame rate mode                : Constant
Frame rate                     : 23.976 (24000/1001) FPS
Color space                    : YUV
Chroma subsampling             : 4:2:0
Bit depth                      : 8 bits
Scan type                      : Progressive
Bits/(Pixel*Frame)             : 0.055
Stream size                    : 581 MiB (82%)
Title                          : GOPI SAHI
Writing library                : x264 core 157 r2935 545de2f


Audio #1
ID                             : 2
Format                         : AAC LC
Format/Info                    : Advanced Audio Codec Low Complexity
Codec ID                       : A_AAC-2
Duration                       : 1 h 30 min
Bit rate                       : 96.0 kb/s
Channel(s)                     : 2 channels
Channel layout                 : L R
Sampling rate                  : 48.0 kHz
Frame rate                     : 46.875 FPS (1024 SPF)
Compression mode               : Lossy
Delay relative to video        : -21 ms
Stream size                    : 62.3 MiB (9%)
Title                          : GOPI SAHI
Language                       : Hindi
Default                        : Yes
Forced                         : No

Audio #2
ID                             : 3
Format                         : AAC LC
Format/Info                    : Advanced Audio Codec Low Complexity
Codec ID                       : A_AAC-2
Duration                       : 1 h 30 min
Bit rate                       : 96.0 kb/s
Channel(s)                     : 2 channels
Channel layout                 : L R
Sampling rate                  : 48.0 kHz
Frame rate                     : 46.875 FPS (1024 SPF)
Compression mode               : Lossy
Delay relative to video        : -21 ms
Stream size                    : 62.2 MiB (9%)
Title                          : GOPI SAHI
Language                       : English
Default                        : No
Forced                         : No

Text
ID                             : 4
Format                         : PGS
Muxing mode                    : zlib
Codec ID                       : S_HDMV/PGS
Codec ID/Info                  : Picture based subtitle format used on BDs/HD-DVDs
Duration                       : 1 h 20 min
Bit rate                       : 34.8 kb/s
Count of elements              : 1824
Stream size                    : 20.1 MiB (3%)
Title                          : GOPI SAHI
Language                       : English
Default                        : Yes
Forced                         : Yes

Menu #1
00:00:00.000                   : :Chapter 1
00:05:41.424                   : :Chapter 2
00:12:52.689                   : :Chapter 3
00:18:14.385                   : :Chapter 4
00:23:02.631                   : :Chapter 5
00:27:20.222                   : :Chapter 6
00:31:51.368                   : :Chapter 7
00:38:58.962                   : :Chapter 8
00:46:42.133                   : :Chapter 9
00:50:56.762                   : :Chapter 10
00:55:23.737                   : :Chapter 11
01:00:39.427                   : :Chapter 12
01:05:55.577                   : :Chapter 13
01:12:18.084                   : :Chapter 14
01:17:22.555                   : :Chapter 15
01:21:34.348                   : :Chapter 16

Menu #2
00:00:00.000                   : en:Chapter 1
00:05:41.299                   : en:Chapter 2
00:12:52.605                   : en:Chapter 3
00:18:14.302                   : en:Chapter 4
00:23:02.548                   : en:Chapter 5
00:27:19.972                   : en:Chapter 6
00:31:51.243                   : en:Chapter 7
00:38:58.920                   : en:Chapter 8
00:46:41.882                   : en:Chapter 9
00:50:56.679                   : en:Chapter 10
00:55:23.570                   : en:Chapter 11
01:00:39.344                   : en:Chapter 12
01:05:55.410                   : en:Chapter 13
01:12:18.084                   : en:Chapter 14
01:17:22.388                   : en:Chapter 15
01:21:34.306                   : en:Chapter 16

 





Post a Comment

0 Comments