Black Narcissus 1947 x264 720p BluRay Dual Audio English Hindi GOPI SAHI

Black Narcissus (1947)

Not Rated | | Drama | December 1947 (USA)
 
 
A group of nuns struggle to establish a convent in the Himalayas, while isolation, extreme weather, altitude, and culture clashes all conspire to drive the well-intentioned missionaries mad.
EN

Writers:

Rumer Godden (adapted from the novel by), Michael Powell | 1 more credit »
 
7.8/10
21,187
 
 
Directed by
Produced by
  • Michael Powell
  • Emeric Pressburger
Screenplay by
  • Michael Powell
  • Emeric Pressburger
Based onBlack Narcissus
by Rumer Godden
Starring
Music byBrian Easdale
CinematographyJack Cardiff
Edited byReginald Mills
Color processTechnicolor
Distributed by
Release date
‹See TfM›
  • 4 May 1947 (UK)[1]
  • 13 August 1947 (US)
Running time
100 minutes
CountryUnited Kingdom
LanguageEnglish
Budget£280,000 (or $1.2 million[2]) or £351,494[3]
 

 
 
Black Narcissus 1947 x264 720p BluRay Dual Audio English Hindi GOPI SAHI


Format                         : Matroska
Format version                 : Version 4
File size                      : 790 MiB
Duration                       : 1 h 41 min
Overall bit rate               : 1 092 kb/s
Movie name                     : Black Narcissus 1947 GOPI SAHI
Encoded date                   : UTC 2020-10-28 10:22:08

Video
ID                             : 1
Format                         : AVC
Format/Info                    : Advanced Video Codec
Format profile                 : [email protected]
Format settings                : CABAC / 5 Ref Frames
Format settings, CABAC         : Yes
Format settings, Reference fra : 5 frames
Codec ID                       : V_MPEG4/ISO/AVC
Duration                       : 1 h 41 min
Bit rate                       : 899 kb/s
Width                          : 984 pixels
Height                         : 720 pixels
Display aspect ratio           : 4:3
Frame rate mode                : Constant
Frame rate                     : 23.976 (24000/1001) FPS
Color space                    : YUV
Chroma subsampling             : 4:2:0
Bit depth                      : 8 bits
Scan type                      : Progressive
Bits/(Pixel*Frame)             : 0.053
Stream size                    : 650 MiB (82%)
Title                          : GOPI SAHI
Writing library                : x264 core 157 r2935 545de2f

Audio #1
ID                             : 2
Format                         : AAC LC
Format/Info                    : Advanced Audio Codec Low Complexity
Codec ID                       : A_AAC-2
Duration                       : 1 h 41 min
Bit rate                       : 96.0 kb/s
Channel(s)                     : 2 channels
Channel layout                 : L R
Sampling rate                  : 48.0 kHz
Frame rate                     : 46.875 FPS (1024 SPF)
Compression mode               : Lossy
Delay relative to video        : -21 ms
Stream size                    : 68.1 MiB (9%)
Title                          : GOPI SAHI
Language                       : Hindi
Default                        : Yes
Forced                         : No

Audio #2
ID                             : 3
Format                         : AAC LC
Format/Info                    : Advanced Audio Codec Low Complexity
Codec ID                       : A_AAC-2
Duration                       : 1 h 41 min
Bit rate                       : 96.0 kb/s
Channel(s)                     : 1 channel
Channel layout                 : C
Sampling rate                  : 48.0 kHz
Frame rate                     : 46.875 FPS (1024 SPF)
Compression mode               : Lossy
Stream size                    : 69.6 MiB (9%)
Title                          : GOPI SAHI
Language                       : English
Default                        : No
Forced                         : No



 MAGNET

TORRENT

 MULTIUP

DWONLOAD AUTO START IN 20 SEC WAIT

DWONLOAD AUTO START IN 20 SEC WAIT

GDRIVE

CLOUDRU

DOSYA


USAUPLOAD

MEDIAFIRE

ONLINE 720P