Brightburn 2019 x264 720p Esub AmaZoNe Dual Audio Hindi English Telugu Tamil GOPI SAHI

Brightburn (2019)


 
What if a child from another world crash-landed on Earth, but instead of becoming a hero to mankind, he proved to be something far more sinister?
EN

Director:

David Yarovesky

Writers:

Brian Gunn, Mark Gunn
6.1/10


Directed byDavid Yarovesky
Produced by
Written by
Starring
Music byTimothy Williams
CinematographyMichael Dallatorre
Edited byAndrew S. Eisen
Production
company
Distributed bySony Pictures Releasing
Release date
  • May 24, 2019 (United States)
Running time
90 minutes
CountryUnited States
LanguageEnglish
Budget$6–12 million[1]
Box office$32.9 million[2]


Brightburn 2019 x264 720p Esub AmaZoNe Dual Audio Hindi English Telugu Tamil GOPI SAHI

Format                         : Matroska
Format version                 : Version 4
File size                      : 959 MiB
Duration                       : 1 h 30 min
Overall bit rate               : 1 481 kb/s
Movie name                     : Brightburn 2019 GOPISAHI

Video
ID                             : 1
Format                         : AVC
Format/Info                    : Advanced Video Codec
Format profile                 : [email protected]
Format settings                : CABAC / 12 Ref Frames
Format settings, CABAC         : Yes
Format settings, Reference fra : 12 frames
Codec ID                       : V_MPEG4/ISO/AVC
Duration                       : 1 h 30 min
Bit rate                       : 899 kb/s
Width                          : 1 280 pixels
Height                         : 534 pixels
Display aspect ratio           : 2.40:1
Frame rate mode                : Constant
Frame rate                     : 23.976 (24000/1001) FPS
Color space                    : YUV
Chroma subsampling             : 4:2:0
Bit depth                      : 8 bits
Scan type                      : Progressive
Bits/(Pixel*Frame)             : 0.055
Stream size                    : 582 MiB (61%)
Title                          : GOPISAHI
Writing library                : x264 core 157 r2935 545de2f

Audio #1
ID                             : 2
Format                         : AAC LC
Format/Info                    : Advanced Audio Codec Low Complexity
Codec ID                       : A_AAC-2
Duration                       : 1 h 30 min
Bit rate                       : 192 kb/s
Channel(s)                     : 6 channels
Channel layout                 : C L R Ls Rs LFE
Sampling rate                  : 48.0 kHz
Frame rate                     : 46.875 FPS (1024 SPF)
Compression mode               : Lossy
Delay relative to video        : -21 ms
Stream size                    : 124 MiB (13%)
Title                          : GOPISAHI
Language                       : Hindi
Default                        : Yes
Forced                         : No

Audio #2
ID                             : 3
Format                         : AAC LC
Format/Info                    : Advanced Audio Codec Low Complexity
Codec ID                       : A_AAC-2
Duration                       : 1 h 30 min
Bit rate                       : 192 kb/s
Channel(s)                     : 6 channels
Channel layout                 : C L R Ls Rs LFE
Sampling rate                  : 48.0 kHz
Frame rate                     : 46.875 FPS (1024 SPF)
Compression mode               : Lossy
Delay relative to video        : -21 ms
Stream size                    : 125 MiB (13%)
Title                          : GOPISAHI
Language                       : English
Default                        : No
Forced                         : No

Audio #3
ID                             : 4
Format                         : AAC LC
Format/Info                    : Advanced Audio Codec Low Complexity
Codec ID                       : A_AAC-2
Duration                       : 1 h 30 min
Bit rate                       : 96.0 kb/s
Channel(s)                     : 2 channels
Channel layout                 : L R
Sampling rate                  : 48.0 kHz
Frame rate                     : 46.875 FPS (1024 SPF)
Compression mode               : Lossy
Delay relative to video        : -21 ms
Stream size                    : 62.4 MiB (7%)
Title                          : GOPISAHI
Language                       : Tamil
Default                        : No
Forced                         : No

Audio #4
ID                             : 5
Format                         : AAC LC
Format/Info                    : Advanced Audio Codec Low Complexity
Codec ID                       : A_AAC-2
Duration                       : 1 h 30 min
Bit rate                       : 96.0 kb/s
Channel(s)                     : 2 channels
Channel layout                 : L R
Sampling rate                  : 48.0 kHz
Frame rate                     : 46.875 FPS (1024 SPF)
Compression mode               : Lossy
Delay relative to video        : -21 ms
Stream size                    : 62.4 MiB (7%)
Title                          : GOPISAHI
Language                       : Telugu
Default                        : No
Forced                         : No

Text #1
ID                             : 6
Format                         : UTF-8
Codec ID                       : S_TEXT/UTF8
Codec ID/Info                  : UTF-8 Plain Text
Duration                       : 1 h 24 min
Bit rate                       : 40 b/s
Count of elements              : 871
Stream size                    : 25.2 KiB (0%)
Title                          : GOPISAHI
Language                       : English
Default                        : Yes
Forced                         : No

Text #2
ID                             : 7
Format                         : UTF-8
Codec ID                       : S_TEXT/UTF8
Codec ID/Info                  : UTF-8 Plain Text
Duration                       : 1 h 29 min
Bit rate                       : 99 b/s
Count of elements              : 893
Stream size                    : 65.0 KiB (0%)
Title                          : GOPISAHI
Language                       : Hindi
Default                        : No
Forced                         : No

Text #3
ID                             : 8
Format                         : UTF-8
Codec ID                       : S_TEXT/UTF8
Codec ID/Info                  : UTF-8 Plain Text
Duration                       : 1 h 29 min
Bit rate                       : 113 b/s
Count of elements              : 893
Stream size                    : 74.3 KiB (0%)
Title                          : GOPISAHI
Language                       : Tamil
Default                        : No
Forced                         : No

Text #4
ID                             : 9
Format                         : UTF-8
Codec ID                       : S_TEXT/UTF8
Codec ID/Info                  : UTF-8 Plain Text
Duration                       : 1 h 29 min
Bit rate                       : 98 b/s
Count of elements              : 894
Stream size                    : 64.3 KiB (0%)
Title                          : GOPISAHI
Language                       : Telugu
Default                        : No
Forced                         : No