Charlie And The Chocolate Factory 2005 x264 720p Esub BluRay Dual Audio English Hindi GOPI SAHI

Charlie and the Chocolate Factory (2005)

A young boy wins a tour through the most magnificent chocolate factory in the world, led by the world's most unusual candy maker.
EN

Director:

Tim Burton

Writers:

Roald Dahl (book), John August (screenplay)
 
6.6/10
420,094
Directed byTim Burton
Produced by
Screenplay byJohn August
Based onCharlie and the Chocolate Factory
by Roald Dahl
Starring
Music byDanny Elfman
CinematographyPhilippe Rousselot
Edited byChris Lebenzon
Production
companies
Distributed byWarner Bros. Pictures
Release date
Running time
115 minutes[1]
Country
  • United States
  • United Kingdom[2]
  • Australia[3]
LanguageEnglish
Budget$150 million[4]
Box office$475 million[5]

 

 

 
Charlie and the Chocolate Factory 2005 x264 720p Esub BluRay Dual Audio English Hindi GOPI SAHI
Format                         : Matroska
Format version                 : Version 4
File size                      : 915 MiB
Duration                       : 1 h 55 min
Overall bit rate               : 1 108 kb/s
Movie name                     : Charlie and the Chocolate Factory 2005 GOPI SAHI
Encoded date                   : UTC 2020-10-22 22:59:27

Video
ID                             : 1
Format                         : AVC
Format/Info                    : Advanced Video Codec
Format profile                 : [email protected]
Format settings                : CABAC / 5 Ref Frames
Format settings, CABAC         : Yes
Format settings, Reference fra : 5 frames
Codec ID                       : V_MPEG4/ISO/AVC
Duration                       : 1 h 55 min
Bit rate                       : 899 kb/s
Width                          : 1 280 pixels
Height                         : 724 pixels
Display aspect ratio           : 16:9
Frame rate mode                : Constant
Frame rate                     : 23.976 (24000/1001) FPS
Color space                    : YUV
Chroma subsampling             : 4:2:0
Bit depth                      : 8 bits
Scan type                      : Progressive
Bits/(Pixel*Frame)             : 0.040
Stream size                    : 742 MiB (81%)
Title                          : GOPI SAHI
Writing library                : x264 core 157 r2935 545de2f

Audio #1
ID                             : 2
Format                         : AAC LC
Format/Info                    : Advanced Audio Codec Low Complexity
Codec ID                       : A_AAC-2
Duration                       : 1 h 55 min
Bit rate                       : 96.0 kb/s
Channel(s)                     : 2 channels
Channel layout                 : L R
Sampling rate                  : 48.0 kHz
Frame rate                     : 46.875 FPS (1024 SPF)
Compression mode               : Lossy
Delay relative to video        : -21 ms
Stream size                    : 79.6 MiB (9%)
Title                          : GOPI SAHI
Language                       : Hindi
Default                        : Yes
Forced                         : No

Audio #2
ID                             : 3
Format                         : AAC LC
Format/Info                    : Advanced Audio Codec Low Complexity
Codec ID                       : A_AAC-2
Duration                       : 1 h 55 min
Bit rate                       : 96.0 kb/s
Channel(s)                     : 2 channels
Channel layout                 : L R
Sampling rate                  : 48.0 kHz
Frame rate                     : 46.875 FPS (1024 SPF)
Compression mode               : Lossy
Delay relative to video        : -21 ms
Stream size                    : 79.6 MiB (9%)
Title                          : GOPI SAHI
Language                       : English
Default                        : No
Forced                         : No

Text
ID                             : 4
Format                         : PGS
Muxing mode                    : zlib
Codec ID                       : S_HDMV/PGS
Codec ID/Info                  : Picture based subtitle format used on BDs/HD-DVDs
Duration                       : 1 h 51 min
Bit rate                       : 31.3 kb/s
Count of elements              : 2446
Stream size                    : 24.9 MiB (3%)
Title                          : GOPI SAHI
Language                       : English
Default                        : Yes
Forced                         : Yes

Menu
00:00:00.000                   : :Candy-Coated Credits
00:04:14.296                   : :Years Ago
00:07:54.766                   : :Chocolate Palace
00:09:53.885                   : :It's a Mystery
00:13:32.312                   : :Golden Ticket Maia
00:16:45.838                   : :Augustus Gloop and Veruca Salt
00:19:52.858                   : :Birthday Boy
00:22:01.320                   : :Violet Beauregarde and Mike Teavee
00:24:49.863                   : :A Setback and a Fling
00:27:38.782                   : :Finding Gold
00:31:26.760                   : :Are You a Dummy?
00:33:04.733                   : :Really Willy Wonka
00:38:06.826                   : :Let's Be Friends
00:40:33.848                   : :Everything's Eatable
00:44:25.872                   : :Loompaland
00:48:24.318                   : :Clog and Song: Augustus Gloop
00:54:34.480                   : :Pink Sugar Boat
00:57:04.171                   : :Dr. Wilbur Wonka
00:59:33.570                   : :Chocolate River Rapids
01:01:44.743                   : :Turning Violet
01:07:40.848                   : :Song: Violet Beauregarde
01:10:07.120                   : :First Candy Flashback
01:12:07.824                   : :Squirrels and Bad Nuts
01:17:23.180                   : :Song: Veruca Salt
01:20:19.106                   : :Glass Elevator Flashback
01:22:21.728                   : :Chocolate Transmission
01:28:12.704                   : :Song: Mike Teavee
01:33:23.014                   : :Up and Out
01:36:52.557                   : :Winner's Choice
01:41:16.112                   : :Charlie's Advice
01:44:22.089                   : :Something Even Better
01:48:50.524                   : :End Credits