Crank 2006 x264 720p Esub BluRay Dual Audio English Hindi GOPI SAHI

Crank (2006)

 
Professional assassin Chev Chelios learns his rival has injected him with a poison that will kill him if his heart rate drops.
EN

Directors:

Mark Neveldine (as Neveldine), Brian Taylor (as Taylor)

Writers:

Mark Neveldine (as Neveldine), Brian Taylor (as Taylor)
 
6.9/10
231,892
irected byNeveldine/Taylor
Produced by
Written byNeveldine/Taylor
Starring
Music byPaul Haslinger
CinematographyAdam Biddle
Edited byBrian Berdan
Production
companies
Distributed byLionsgate
Release date
  • September 1, 2006
Running time
88 minutes[1]
CountryUnited States
LanguageEnglish
Budget$12 million[2]
Box office$42.9 million[2]


 Crank 2006 GOPISAHI


Format                         : Matroska
Format version                 : Version 4
File size                      : 737 MiB
Duration                       : 1 h 34 min
Overall bit rate               : 1 094 kb/s
Movie name                     : Crank 2006 GOPISAHI
Encoded date                   : UTC 2020-04-07 14:13:06

Video
ID                             : 1
Format                         : AVC
Format/Info                    : Advanced Video Codec
Format profile                 : [email protected]
Format settings                : CABAC / 5 Ref Frames
Format settings, CABAC         : Yes
Format settings, Reference fra : 5 frames
Codec ID                       : V_MPEG4/ISO/AVC
Duration                       : 1 h 34 min
Bit rate                       : 899 kb/s
Width                          : 1 280 pixels
Height                         : 694 pixels
Display aspect ratio           : 1.85:1
Frame rate mode                : Constant
Frame rate                     : 23.976 (24000/1001) FPS
Color space                    : YUV
Chroma subsampling             : 4:2:0
Bit depth                      : 8 bits
Scan type                      : Progressive
Bits/(Pixel*Frame)             : 0.042
Stream size                    : 605 MiB (82%)
Title                          : GOPISAHI
Writing library                : x264 core 157 r2935 545de2f

Audio #1
ID                             : 2
Format                         : AAC LC
Format/Info                    : Advanced Audio Codec Low Complexity
Codec ID                       : A_AAC-2
Duration                       : 1 h 34 min
Bit rate                       : 96.0 kb/s
Channel(s)                     : 2 channels
Channel layout                 : L R
Sampling rate                  : 48.0 kHz
Frame rate                     : 46.875 FPS (1024 SPF)
Compression mode               : Lossy
Delay relative to video        : -21 ms
Stream size                    : 65.0 MiB (9%)
Title                          : GOPISAHI
Language                       : Hindi
Default                        : Yes
Forced                         : No

Audio #2
ID                             : 3
Format                         : AAC LC
Format/Info                    : Advanced Audio Codec Low Complexity
Codec ID                       : A_AAC-2
Duration                       : 1 h 34 min
Bit rate                       : 96.0 kb/s
Channel(s)                     : 2 channels
Channel layout                 : L R
Sampling rate                  : 48.0 kHz
Frame rate                     : 46.875 FPS (1024 SPF)
Compression mode               : Lossy
Delay relative to video        : -21 ms
Stream size                    : 64.8 MiB (9%)
Title                          : GOPISAHI
Language                       : English
Default                        : No
Forced                         : No

Text
ID                             : 4
Format                         : UTF-8
Codec ID                       : S_TEXT/UTF8
Codec ID/Info                  : UTF-8 Plain Text
Duration                       : 1 h 25 min
Bit rate                       : 46 b/s
Count of elements              : 813
Stream size                    : 29.3 KiB (0%)
Title                          : GOPISAHI
Language                       : English
Default                        : Yes
Forced                         : No




 MAGNET

TORRENT

MULTIUP

ANONFILES

BAYFILES

DWONLOAD AUTO START IN 20 SEC WAIT

DWONLOAD AUTO START IN 20 SEC WAIT

GDRIVE


CLOUDRU

MEDIAFIRE

DOSYA

USAUPLOAD

ONLINE 720P


ONLINE 720P 2


Post a Comment

0 Comments