Deepwater Horizon 2016 x264 720p Esub BluRay Dual Audio English Hindi GOPI SAHI

 

Deepwater Horizon (2016)

 
 
A dramatization of the disaster in April 2010, when the offshore drilling rig called the Deepwater Horizon exploded, resulting in the worst oil spill in American history.
EN

Director:

Peter Berg

Writers:

Matthew Michael Carnahan (screenplay by), Matthew Sand (screenplay by) | 4 more credits »
 
7.1/10
147,813
Directed byPeter Berg
Produced by
Screenplay by
Story byMatthew Sand
Based onDeepwater Horizon's Final Hours[1]
by David Barstow
David Rohde
Stephanie Saul
Starring
Music bySteve Jablonsky
CinematographyEnrique Chediak
Edited by
  • Colby Parker Jr.
  • Gabriel Fleming
Production
companies
Distributed bySummit Entertainment
Release date
  • September 13, 2016 (TIFF)
  • September 30, 2016 (United States)
Running time
107 minutes[2]
CountryUnited States
LanguageEnglish
Budget
  • $156 million (gross)[3]
  • $110–120 million (net)[3]
Box office$121.8 million[4

 
Deepwater Horizon 2016 x264 720p Esub BluRay Dual Audio English Hindi GOPI SAHI

Format                         : Matroska
Format version                 : Version 4
File size                      : 852 MiB
Duration                       : 1 h 47 min
Overall bit rate               : 1 111 kb/s
Movie name                     : Deepwater Horizon 2016 GOPI SAHI
Encoded date                   : UTC 2020-10-08 10:58:02

Video
ID                             : 1
Format                         : AVC
Format/Info                    : Advanced Video Codec
Format profile                 : [email protected]
Format settings                : CABAC / 5 Ref Frames
Format settings, CABAC         : Yes
Format settings, Reference fra : 5 frames
Codec ID                       : V_MPEG4/ISO/AVC
Duration                       : 1 h 47 min
Bit rate                       : 899 kb/s
Width                          : 1 280 pixels
Height                         : 534 pixels
Display aspect ratio           : 2.40:1
Frame rate mode                : Constant
Frame rate                     : 23.976 (24000/1001) FPS
Color space                    : YUV
Chroma subsampling             : 4:2:0
Bit depth                      : 8 bits
Scan type                      : Progressive
Bits/(Pixel*Frame)             : 0.055
Stream size                    : 689 MiB (81%)
Title                          : GOPI SAHI
Writing library                : x264 core 157 r2935 545de2f

Audio #1
ID                             : 2
Format                         : AAC LC
Format/Info                    : Advanced Audio Codec Low Complexity
Codec ID                       : A_AAC-2
Duration                       : 1 h 47 min
Bit rate                       : 96.0 kb/s
Channel(s)                     : 2 channels
Channel layout                 : L R
Sampling rate                  : 48.0 kHz
Frame rate                     : 46.875 FPS (1024 SPF)
Compression mode               : Lossy
Delay relative to video        : -10 ms
Stream size                    : 74.0 MiB (9%)
Title                          : GOPI SAHI
Language                       : Hindi
Default                        : Yes
Forced                         : No

Audio #2
ID                             : 3
Format                         : AAC LC
Format/Info                    : Advanced Audio Codec Low Complexity
Codec ID                       : A_AAC-2
Duration                       : 1 h 47 min
Bit rate                       : 96.0 kb/s
Channel(s)                     : 2 channels
Channel layout                 : L R
Sampling rate                  : 48.0 kHz
Frame rate                     : 46.875 FPS (1024 SPF)
Compression mode               : Lossy
Delay relative to video        : -21 ms
Stream size                    : 74.0 MiB (9%)
Title                          : GOPI SAHI
Language                       : English
Default                        : No
Forced                         : No

Text
ID                             : 4
Format                         : PGS
Muxing mode                    : zlib
Codec ID                       : S_HDMV/PGS
Codec ID/Info                  : Picture based subtitle format used on BDs/HD-DVDs
Duration                       : 1 h 36 min
Bit rate                       : 44.3 kb/s
Count of elements              : 2997
Stream size                    : 30.7 MiB (4%)
Title                          : GOPI SAHI
Language                       : English
Default                        : Yes
Forced                         : Yes

Menu
00:00:00.000                   : :Chapter 1
00:07:01.212                   : :Chapter 2
00:12:32.627                   : :Chapter 3
00:19:34.548                   : :Chapter 4
00:27:17.344                   : :Chapter 5
00:34:52.632                   : :Chapter 6
00:44:29.834                   : :Chapter 7
00:48:04.924                   : :Chapter 8
00:53:47.725                   : :Chapter 9
00:58:05.190                   : :Chapter 10
01:05:44.607                   : :Chapter 11
01:10:06.869                   : :Chapter 12
01:16:02.933                   : :Chapter 13
01:20:44.381                   : :Chapter 14
01:27:37.794                   : :Chapter 15
01:31:37.951                   : :Chapter 16
 


 

Post a Comment

0 Comments