Dolemite Is My Name 2019 x264 720p Esub NetFLix Dual Audio Hindi English GOPI SAHI

Dolemite Is My Name (2019)



Eddie Murphy portrays real-life legend Rudy Ray Moore, a comedy and rap pioneer who proved naysayers wrong when his hilarious, obscene, kung-fu fighting alter ego, Dolemite, became a 1970s Blaxploitation phenomenon.
EN

Director:

Craig Brewer
7.3/10







Dolemite Is My Name 2019 x264 720p Esub NetFLix Dual Audio Hindi English GOPI SAHI

Format                         : Matroska
Format version                 : Version 4
File size                      : 925 MiB
Duration                       : 1 h 58 min
Overall bit rate               : 1 094 kb/s
Movie name                     : DOLEMITE IS MY NAME 2019 GOPISAHI
Encoded date                   : UTC 2019-10-28 03:52:29

Video
ID                             : 1
Format                         : AVC
Format/Info                    : Advanced Video Codec
Format profile                 : [email protected]
Format settings                : CABAC / 10 Ref Frames
Format settings, CABAC         : Yes
Format settings, Reference fra : 10 frames
Codec ID                       : V_MPEG4/ISO/AVC
Duration                       : 1 h 58 min
Bit rate                       : 899 kb/s
Width                          : 1 280 pixels
Height                         : 640 pixels
Display aspect ratio           : 2.000
Frame rate mode                : Constant
Frame rate                     : 24.000 FPS
Color space                    : YUV
Chroma subsampling             : 4:2:0
Bit depth                      : 8 bits
Scan type                      : Progressive
Bits/(Pixel*Frame)             : 0.046
Stream size                    : 760 MiB (82%)
Title                          : GOPISAHI
Writing library                : x264 core 157 r2935 545de2f

Audio #1
ID                             : 2
Format                         : AAC LC
Format/Info                    : Advanced Audio Codec Low Complexity
Codec ID                       : A_AAC-2
Duration                       : 1 h 58 min
Bit rate                       : 96.0 kb/s
Channel(s)                     : 2 channels
Channel layout                 : L R
Sampling rate                  : 48.0 kHz
Frame rate                     : 46.875 FPS (1024 SPF)
Compression mode               : Lossy
Delay relative to video        : -21 ms
Stream size                    : 81.2 MiB (9%)
Title                          : GOPISAHI
Language                       : Hindi
Default                        : Yes
Forced                         : No

Audio #2
ID                             : 3
Format                         : AAC LC
Format/Info                    : Advanced Audio Codec Low Complexity
Codec ID                       : A_AAC-2
Duration                       : 1 h 58 min
Bit rate                       : 96.0 kb/s
Channel(s)                     : 2 channels
Channel layout                 : L R
Sampling rate                  : 48.0 kHz
Frame rate                     : 46.875 FPS (1024 SPF)
Compression mode               : Lossy
Delay relative to video        : -21 ms
Stream size                    : 81.2 MiB (9%)
Title                          : GOPISAHI
Language                       : English
Default                        : No
Forced                         : No

Text
ID                             : 4
Format                         : UTF-8
Codec ID                       : S_TEXT/UTF8
Codec ID/Info                  : UTF-8 Plain Text
Duration                       : 1 h 57 min
Bit rate                       : 94 b/s
Count of elements              : 2050
Stream size                    : 81.0 KiB (0%)
Title                          : GOPISAHI
Language                       : English
Default                        : Yes
Forced                         : No






Post a Comment

0 Comments