Dumbo 1941 x264 720p Esub BluRay Dual Audio English Hindi Italian GOPI SAHI

Dumbo (1941)

 
 
Ridiculed because of his enormous ears, a young circus elephant is assisted by a mouse to achieve his full potential.
EN

Directors:

Samuel Armstrong (as Sam Armstrong), Norman Ferguson | 5 more credits »

Writers:

Joe Grant (screen story by), Dick Huemer (screen story by) | 6 more credits »
 
7.2/10
117,836
Directed bySupervising director:
Ben Sharpsteen
Sequence directors:
Norman Ferguson
Wilfred Jackson
Bill Roberts
Jack Kinney
Samuel Armstrong
Produced byWalt Disney
Story byOtto Englander
Joe Grant
Dick Huemer
Based onDumbo, the Flying Elephant
by Helen Aberson
Harold Pearl
StarringEdward Brophy
Herman Bing
Margaret Wright
Sterling Holloway
Verna Felton
Cliff Edwards
James Baskett
Nick Stewart
Hall Johnson
Jim Carmichael
Narrated byJohn McLeish
Music byFrank Churchill
Oliver Wallace
Production
company
Distributed byRKO Radio Pictures
Release date
‹See TfM›
  • October 23, 1941 (New York City)[1]
  • October 31, 1941 (U.S.)
Running time
64 minutes
CountryUnited States
LanguageEnglish
Budget$950,000[2]
Box office$1.3 million (est. United States/Canada rentals, 1941)[3]


Dumbo 1941 x264 720p Esub BluRay Dual Audio English Hindi Italian GOPI SAHI


Format                         : Matroska
Format version                 : Version 4
File size                      : 549 MiB
Duration                       : 1 h 3 min
Overall bit rate               : 1 200 kb/s
Movie name                     : Dumbo 1941 GOPI SAHI
Encoded date                   : UTC 2020-10-27 23:35:16

Video
ID                             : 1
Format                         : AVC
Format/Info                    : Advanced Video Codec
Format profile                 : [email protected]
Format settings                : CABAC / 5 Ref Frames
Format settings, CABAC         : Yes
Format settings, Reference fra : 5 frames
Codec ID                       : V_MPEG4/ISO/AVC
Duration                       : 1 h 3 min
Bit rate                       : 899 kb/s
Width                          : 1 280 pixels
Height                         : 960 pixels
Display aspect ratio           : 4:3
Frame rate mode                : Constant
Frame rate                     : 23.976 (24000/1001) FPS
Color space                    : YUV
Chroma subsampling             : 4:2:0
Bit depth                      : 8 bits
Scan type                      : Progressive
Bits/(Pixel*Frame)             : 0.031
Stream size                    : 411 MiB (75%)
Title                          : GOPI SAHI
Writing library                : x264 core 157 r2935 545de2f

Audio #1
ID                             : 2
Format                         : AAC LC
Format/Info                    : Advanced Audio Codec Low Complexity
Codec ID                       : A_AAC-2
Duration                       : 1 h 3 min
Bit rate                       : 96.0 kb/s
Channel(s)                     : 2 channels
Channel layout                 : L R
Sampling rate                  : 48.0 kHz
Frame rate                     : 46.875 FPS (1024 SPF)
Compression mode               : Lossy
Delay relative to video        : -26 ms
Stream size                    : 44.0 MiB (8%)
Title                          : GOPI SAHI
Language                       : Hindi
Default                        : Yes
Forced                         : No

Audio #2
ID                             : 3
Format                         : AAC LC
Format/Info                    : Advanced Audio Codec Low Complexity
Codec ID                       : A_AAC-2
Duration                       : 1 h 3 min
Bit rate                       : 96.0 kb/s
Channel(s)                     : 2 channels
Channel layout                 : L R
Sampling rate                  : 48.0 kHz
Frame rate                     : 46.875 FPS (1024 SPF)
Compression mode               : Lossy
Delay relative to video        : -26 ms
Stream size                    : 44.0 MiB (8%)
Title                          : GOPI SAHI
Language                       : English
Default                        : No
Forced                         : No

Audio #3
ID                             : 4
Format                         : AAC LC
Format/Info                    : Advanced Audio Codec Low Complexity
Codec ID                       : A_AAC-2
Duration                       : 1 h 3 min
Bit rate                       : 96.0 kb/s
Channel(s)                     : 2 channels
Channel layout                 : L R
Sampling rate                  : 48.0 kHz
Frame rate                     : 46.875 FPS (1024 SPF)
Compression mode               : Lossy
Delay relative to video        : -26 ms
Stream size                    : 44.0 MiB (8%)
Title                          : GOPI SAHI
Language                       : Italian
Default                        : No
Forced                         : No

Text #1
ID                             : 5
Format                         : PGS
Muxing mode                    : zlib
Codec ID                       : S_HDMV/PGS
Codec ID/Info                  : Picture based subtitle format used on BDs/HD-DVDs
Duration                       : 1 h 0 min
Bit rate                       : 143 b/s
Count of elements              : 10
Stream size                    : 63.8 KiB (0%)
Title                          : GOPI SAHI
Language                       : Italian
Default                        : No
Forced                         : Yes

Text #2
ID                             : 6
Format                         : PGS
Muxing mode                    : zlib
Codec ID                       : S_HDMV/PGS
Codec ID/Info                  : Picture based subtitle format used on BDs/HD-DVDs
Duration                       : 1 h 2 min
Bit rate                       : 25.0 kb/s
Count of elements              : 1272
Stream size                    : 11.1 MiB (2%)
Title                          : GOPI SAHI
Language                       : English
Default                        : Yes
Forced                         : No



MAGNET

TORRENT

MULTIUP

DWONLOAD AUTO START IN 20 SEC WAIT

DWONLOAD AUTO START IN 20 SEC WAIT

GDRIVE

CLOUDRU

USAUPLOAD

DESYO

MEDIAFIRE

ONLINE 720P