Exodus Gods and Kings 2014 x264 720p Esub BluRay Dual Audio English Hindi GOPI SAHI

 

Exodus: Gods and Kings (2014)

 
The defiant leader Moses rises up against Egyptian Pharaoh Ramses II, setting six hundred thousand slaves on a monumental journey of escape from Egypt and its terrifying cycle of deadly plagues.
EN

6.0/10
158,052

 

Directed byRidley Scott
Produced by
Written by
Starring
Music byAlberto Iglesias
CinematographyDariusz Wolski
Edited byBilly Rich
Production
companies
Distributed by20th Century Fox
Release date
  • December 12, 2014 (United States)
Running time
150 minutes[1]
Country
  • United States
  • United Kingdom
  • Spain[2]
LanguageEnglish
Budget$140–200 million[3][4]
Box office$268.2 million[3]

 

Exodus Gods and Kings 2014 x264 720p Esub BluRay Dual Audio English Hindi GOPI SAHI


Format                         : Matroska
Format version                 : Version 4
File size                      : 1.16 GiB
Duration                       : 2 h 30 min
Overall bit rate               : 1 102 kb/s
Movie name                     : Exodus Gods and Kings 2014 GOPI SAHI
Encoded date                   : UTC 2020-10-21 23:10:45

Video
ID                             : 1
Format                         : AVC
Format/Info                    : Advanced Video Codec
Format profile                 : [email protected]
Format settings                : CABAC / 5 Ref Frames
Format settings, CABAC         : Yes
Format settings, Reference fra : 5 frames
Codec ID                       : V_MPEG4/ISO/AVC
Duration                       : 2 h 30 min
Bit rate                       : 899 kb/s
Width                          : 1 280 pixels
Height                         : 534 pixels
Display aspect ratio           : 2.40:1
Frame rate mode                : Constant
Frame rate                     : 23.976 (24000/1001) FPS
Color space                    : YUV
Chroma subsampling             : 4:2:0
Bit depth                      : 8 bits
Scan type                      : Progressive
Bits/(Pixel*Frame)             : 0.055
Stream size                    : 966 MiB (82%)
Title                          : GOPI SAHI
Writing library                : x264 core 157 r2935 545de2f

Audio #1
ID                             : 2
Format                         : AAC LC
Format/Info                    : Advanced Audio Codec Low Complexity
Codec ID                       : A_AAC-2
Duration                       : 2 h 30 min
Bit rate                       : 96.0 kb/s
Channel(s)                     : 2 channels
Channel layout                 : L R
Sampling rate                  : 48.0 kHz
Frame rate                     : 46.875 FPS (1024 SPF)
Compression mode               : Lossy
Delay relative to video        : -42 ms
Stream size                    : 104 MiB (9%)
Title                          : GOPI SAHI
Language                       : Hindi
Default                        : Yes
Forced                         : No

Audio #2
ID                             : 3
Format                         : AAC LC
Format/Info                    : Advanced Audio Codec Low Complexity
Codec ID                       : A_AAC-2
Duration                       : 2 h 30 min
Bit rate                       : 96.0 kb/s
Channel(s)                     : 2 channels
Channel layout                 : L R
Sampling rate                  : 48.0 kHz
Frame rate                     : 46.875 FPS (1024 SPF)
Compression mode               : Lossy
Delay relative to video        : -42 ms
Stream size                    : 104 MiB (9%)
Title                          : GOPI SAHI
Language                       : English
Default                        : No
Forced                         : No

Text
ID                             : 4
Format                         : PGS
Muxing mode                    : zlib
Codec ID                       : S_HDMV/PGS
Codec ID/Info                  : Picture based subtitle format used on BDs/HD-DVDs
Duration                       : 2 h 26 min
Bit rate                       : 23.7 kb/s
Count of elements              : 3298
Stream size                    : 24.7 MiB (2%)
Title                          : GOPI SAHI
Language                       : English
Default                        : Yes
Forced                         : Yes

Menu
00:00:00.021                   : :00:00:00.000
00:03:55.423                   : :00:03:55.402
00:06:52.016                   : :00:06:51.995
00:11:47.728                   : :00:11:47.707
00:14:29.473                   : :00:14:29.452
00:18:37.679                   : :00:18:37.658
00:22:15.856                   : :00:22:15.834
00:26:51.422                   : :00:26:51.151
00:30:31.309                   : :00:30:31.288
00:36:41.387                   : :00:36:41.366
00:40:48.342                   : :00:40:48.321
00:44:50.209                   : :00:44:49.937
00:48:47.821                   : :00:48:47.800
00:51:16.469                   : :00:51:16.448
00:54:22.238                   : :00:54:22.217
00:57:32.887                   : :00:57:32.658
01:00:31.190                   : :01:00:31.169
01:04:41.565                   : :01:04:41.544
01:06:49.068                   : :01:06:49.047
01:11:01.904                   : :01:11:01.883
01:16:53.713                   : :01:16:53.692
01:21:18.061                   : :01:21:18.040
01:24:30.378                   : :01:24:30.357
01:28:08.554                   : :01:28:08.533
01:30:54.178                   : :01:30:54.157
01:34:14.587                   : :01:34:14.566
01:37:20.564                   : :01:37:20.543
01:39:20.225                   : :01:39:20.204
01:42:40.342                   : :01:42:40.321
01:46:50.091                   : :01:46:50.070
01:49:02.682                   : :01:49:02.661
01:52:18.336                   : :01:52:18.315
01:57:29.897                   : :01:57:29.876
02:00:23.863                   : :02:00:23.842
02:05:41.346                   : :02:05:41.325
02:07:31.290                   : :02:07:31.269
02:13:38.490                   : :02:13:38.469
02:16:21.903                   : :02:16:21.882
02:19:40.143                   : :02:19:39.997
02:23:20.071                   : :02:23:19.800


 MAGNET

TORRENT


DWONLOAD AUTO START IN 20 SEC WAIT

DWONLOAD AUTO START IN 20 SEC WAIT

GDRIVE


CLOUDRU

MEDIAFIRE


ONLINE 720P