First Man 2018 x264 720p Esub BluRay Dual Audio English Hindi GOPI SAHI

First Man (2018)

 
A look at the life of the astronaut, Neil Armstrong, and the legendary space mission that led him to become the first man to walk on the Moon on July 20, 1969.
EN

Director:

Damien Chazelle

Writers:

Josh Singer (screenplay by), James R. Hansen (based on the book by)
 
7.3/10
162,143
Directed byDamien Chazelle
Produced by
Screenplay byJosh Singer
Based onFirst Man: The Life of Neil A. Armstrong
by James R. Hansen
Starring
Music byJustin Hurwitz
CinematographyLinus Sandgren
Edited byTom Cross
Production
company
Distributed byUniversal Pictures[1]
Release date
  • August 29, 2018 (Venice)
  • October 12, 2018 (United States)
Running time
141 minutes[2]
CountryUnited States
LanguageEnglish
Budget
Box office$105.7 million[5]

 

First Man 2018 x264 720p Esub BluRay Dual Audio English Hindi GOPI SAHI


Format                         : Matroska
Format version                 : Version 4
File size                      : 1.10 GiB
Duration                       : 2 h 21 min
Overall bit rate               : 1 114 kb/s
Movie name                     : First Man 2018 GOPI SAHI
Encoded date                   : UTC 2020-10-16 10:41:31

Video
ID                             : 1
Format                         : AVC
Format/Info                    : Advanced Video Codec
Format profile                 : [email protected]
Format settings                : CABAC / 5 Ref Frames
Format settings, CABAC         : Yes
Format settings, Reference fra : 5 frames
Codec ID                       : V_MPEG4/ISO/AVC
Duration                       : 2 h 20 min
Bit rate                       : 899 kb/s
Width                          : 1 280 pixels
Height                         : 538 pixels
Display aspect ratio           : 2.40:1
Frame rate mode                : Constant
Frame rate                     : 23.976 (24000/1001) FPS
Color space                    : YUV
Chroma subsampling             : 4:2:0
Bit depth                      : 8 bits
Scan type                      : Progressive
Bits/(Pixel*Frame)             : 0.054
Stream size                    : 906 MiB (81%)
Title                          : GOPI SAHI
Writing library                : x264 core 157 r2935 545de2f

Audio #1
ID                             : 2
Format                         : AAC LC
Format/Info                    : Advanced Audio Codec Low Complexity
Codec ID                       : A_AAC-2
Duration                       : 2 h 21 min
Bit rate                       : 96.0 kb/s
Channel(s)                     : 2 channels
Channel layout                 : L R
Sampling rate                  : 48.0 kHz
Frame rate                     : 46.875 FPS (1024 SPF)
Compression mode               : Lossy
Delay relative to video        : -10 ms
Stream size                    : 96.3 MiB (9%)
Title                          : GOPI SAHI
Language                       : Hindi
Default                        : Yes
Forced                         : No

Audio #2
ID                             : 3
Format                         : AAC LC
Format/Info                    : Advanced Audio Codec Low Complexity
Codec ID                       : A_AAC-2
Duration                       : 2 h 20 min
Bit rate                       : 96.0 kb/s
Channel(s)                     : 2 channels
Channel layout                 : L R
Sampling rate                  : 48.0 kHz
Frame rate                     : 46.875 FPS (1024 SPF)
Compression mode               : Lossy
Delay relative to video        : -21 ms
Stream size                    : 96.6 MiB (9%)
Title                          : GOPI SAHI
Language                       : English
Default                        : No
Forced                         : No

Text #1
ID                             : 4
Format                         : PGS
Muxing mode                    : zlib
Codec ID                       : S_HDMV/PGS
Codec ID/Info                  : Picture based subtitle format used on BDs/HD-DVDs
Duration                       : 2 h 19 min
Bit rate                       : 19.8 kb/s
Count of elements              : 2874
Stream size                    : 19.8 MiB (2%)
Title                          : GOPI SAHI
Language                       : Hindi
Default                        : No
Forced                         : No

Text #2
ID                             : 5
Format                         : PGS
Muxing mode                    : zlib
Codec ID                       : S_HDMV/PGS
Codec ID/Info                  : Picture based subtitle format used on BDs/HD-DVDs
Duration                       : 2 h 12 min
Bit rate                       : 36.6 kb/s
Count of elements              : 3192
Stream size                    : 34.7 MiB (3%)
Title                          : GOPI SAHI
Language                       : English
Default                        : No
Forced                         : No

Menu
00:00:00.000                   : :Chapter 1
00:07:20.440                   : :Chapter 2
00:13:35.982                   : :Chapter 3
00:19:53.275                   : :Chapter 4
00:25:59.808                   : :Chapter 5
00:31:30.138                   : :Chapter 6
00:40:17.248                   : :Chapter 7
00:49:57.703                   : :Chapter 8
01:00:03.100                   : :Chapter 9
01:05:42.564                   : :Chapter 10
01:11:05.762                   : :Chapter 11
01:15:12.967                   : :Chapter 12
01:21:32.971                   : :Chapter 13
01:30:35.472                   : :Chapter 14
01:39:00.893                   : :Chapter 15
01:48:58.699                   : :Chapter 16
01:54:44.503                   : :Chapter 17
02:00:14.916                   : :Chapter 18
02:09:55.788                   : :Chapter 19
02:14:03.035                   : :Chapter 20