How to Lose a Guy in 10 Days 2003 x264 720p Esub BluRay Dual Audio English Hindi GOPI SAHI


How to Lose a Guy in 10 Days (2003)

 
PG-13 | | Comedy, Romance | 7 February 2003 (USA)

 

Benjamin Barry is an advertising executive and ladies' man who, to win a big campaign, bets that he can make a woman fall in love with him in 10 days.
EN

Director:

Donald Petrie

Writers:

Michele Alexander (book), Jeannie Long (book) | 3 more credits »

 

6.4/10
206,451

 

Directed byDonald Petrie
Produced by
Screenplay by
Based on
How to Lose a Guy in 10 Days
by
  • Michele Alexander
  • Jeannie Long
Starring
Music byDavid Newman
CinematographyJohn Bailey
Edited byDebra Neil-Fisher
Production
companies
Distributed by
Release date
  • February 7, 2003 (United States)
  • April 17, 2003 (Germany)
Running time
116 minutes
Country
LanguageEnglish
Budget$50 million
Box office$177.4 million[2]

 

 

 

How to Lose a Guy in 10 Days 2003 x264 720p Esub BluRay Dual Audio English Hindi GOPI SAHI


Format                         : Matroska
Format version                 : Version 4
File size                      : 929 MiB
Duration                       : 1 h 56 min
Overall bit rate               : 1 116 kb/s
Movie name                     : How to Lose a Guy in 10 Days 2003 GOPI SAHI
Encoded date                   : UTC 2020-10-07 13:44:03

Video
ID                             : 1
Format                         : AVC
Format/Info                    : Advanced Video Codec
Format profile                 : [email protected]
Format settings                : CABAC / 5 Ref Frames
Format settings, CABAC         : Yes
Format settings, Reference fra : 5 frames
Codec ID                       : V_MPEG4/ISO/AVC
Duration                       : 1 h 55 min
Bit rate                       : 899 kb/s
Width                          : 1 280 pixels
Height                         : 720 pixels
Display aspect ratio           : 16:9
Frame rate mode                : Constant
Frame rate                     : 23.976 (24000/1001) FPS
Color space                    : YUV
Chroma subsampling             : 4:2:0
Bit depth                      : 8 bits
Scan type                      : Progressive
Bits/(Pixel*Frame)             : 0.041
Stream size                    : 742 MiB (80%)
Title                          : GOPI SAHI
Writing library                : x264 core 157 r2935 545de2f

Audio #1
ID                             : 2
Format                         : AAC LC
Format/Info                    : Advanced Audio Codec Low Complexity
Codec ID                       : A_AAC-2
Duration                       : 1 h 56 min
Bit rate                       : 96.0 kb/s
Channel(s)                     : 2 channels
Channel layout                 : L R
Sampling rate                  : 48.0 kHz
Frame rate                     : 46.875 FPS (1024 SPF)
Compression mode               : Lossy
Delay relative to video        : 961 ms
Stream size                    : 79.6 MiB (9%)
Title                          : GOPI SAHI
Language                       : Hindi
Default                        : Yes
Forced                         : No

Audio #2
ID                             : 3
Format                         : AAC LC
Format/Info                    : Advanced Audio Codec Low Complexity
Codec ID                       : A_AAC-2
Duration                       : 1 h 55 min
Bit rate                       : 96.0 kb/s
Channel(s)                     : 2 channels
Channel layout                 : L R
Sampling rate                  : 48.0 kHz
Frame rate                     : 46.875 FPS (1024 SPF)
Compression mode               : Lossy
Delay relative to video        : -21 ms
Stream size                    : 79.5 MiB (9%)
Title                          : GOPI SAHI
Language                       : English
Default                        : No
Forced                         : No

Text #1
ID                             : 4
Format                         : PGS
Muxing mode                    : zlib
Codec ID                       : S_HDMV/PGS
Codec ID/Info                  : Picture based subtitle format used on BDs/HD-DVDs
Duration                       : 1 h 50 min
Bit rate                       : 30.9 kb/s
Count of elements              : 3098
Stream size                    : 24.4 MiB (3%)
Title                          : GOPI SAHI
Language                       : Hindi
Default                        : No
Forced                         : No

Text #2
ID                             : 5
Format                         : PGS
Muxing mode                    : zlib
Codec ID                       : S_HDMV/PGS
Codec ID/Info                  : Picture based subtitle format used on BDs/HD-DVDs
Duration                       : 1 h 49 min
Bit rate                       : 49.2 kb/s
Count of elements              : 3412
Stream size                    : 38.6 MiB (4%)
Title                          : GOPI SAHI
Language                       : English
Default                        : No
Forced                         : No

Menu
00:00:00.000                   : :Chapter 1
00:05:45.095                   : :Chapter 2
00:09:09.340                   : :Chapter 3
00:13:45.908                   : :Chapter 4
00:23:49.720                   : :Chapter 5
00:29:39.027                   : :Chapter 6
00:31:35.477                   : :Chapter 7
00:37:12.188                   : :Chapter 8
00:41:22.730                   : :Chapter 9
00:46:25.825                   : :Chapter 10
00:49:32.303                   : :Chapter 11
00:54:00.571                   : :Chapter 12
00:59:57.969                   : :Chapter 13
01:06:33.490                   : :Chapter 14
01:12:29.929                   : :Chapter 15
01:20:17.688                   : :Chapter 16
01:25:40.594                   : :Chapter 17
01:30:44.189                   : :Chapter 18
01:32:56.446                   : :Chapter 19
01:39:16.325                   : :Chapter 20
01:46:15.536                   : :Chapter 21