Khaali Peeli 2020 x264 720p Esub ZEE5 Hindi Telugu Tamil GOPI SAHI

Khaali Peeli (2020)


Khaali Peeli is an action drama wherein a taxi driver picks up a girl on the run and what follows isa crazy, roller-coaster of a ride. His past and present circumstances have made him ... See full summary »
EN

Director:

Maqbool Khan

1.5/10

Directed byMaqbool Khan
Produced byAli Abbas Zafar
Himanshu Kishan Mehra
Zee Studios
Written byYash Kesarwani
Sima Agarwal
StarringIshaan Khatter
Ananya Panday
Jaideep Ahlawat
Music byScore:
Sanchit Balhara
Ankit Balhara
Songs:
Vishal–Shekhar
CinematographyAdil Afsar
Edited byRameshwar S. Bhagat
Production
company
Zee Studios
Offside Entertainment
Distributed byZee Plex
ZEE5
Release date
  • 2 October 2020
Running time
113 minutes
CountryIndia
LanguageHindi





Khaali Peeli 2020 x264 720p Esub ZEE5 Hindi Telugu Tamil GOPI SAHI

Format                         : Matroska
Format version                 : Version 4
File size                      : 965 MiB
Duration                       : 1 h 53 min
Overall bit rate               : 1 189 kb/s
Movie name                     : Khaali Peeli 2020 GOPI SAHI
Encoded date                   : UTC 2020-10-02 15:03:22

Video
ID                             : 1
Format                         : AVC
Format/Info                    : Advanced Video Codec
Format profile                 : [email protected]
Format settings                : CABAC / 5 Ref Frames
Format settings, CABAC         : Yes
Format settings, Reference fra : 5 frames
Codec ID                       : V_MPEG4/ISO/AVC
Duration                       : 1 h 53 min
Bit rate                       : 899 kb/s
Width                          : 1 280 pixels
Height                         : 536 pixels
Display aspect ratio           : 2.40:1
Frame rate mode                : Constant
Frame rate                     : 25.000 FPS
Color space                    : YUV
Chroma subsampling             : 4:2:0
Bit depth                      : 8 bits
Scan type                      : Progressive
Bits/(Pixel*Frame)             : 0.052
Stream size                    : 729 MiB (76%)
Title                          : GOPI SAHI
Writing library                : x264 core 157 r2935 545de2f

Audio #1
ID                             : 2
Format                         : AAC LC
Format/Info                    : Advanced Audio Codec Low Complexity
Codec ID                       : A_AAC-2
Duration                       : 1 h 53 min
Bit rate                       : 96.0 kb/s
Channel(s)                     : 2 channels
Channel layout                 : L R
Sampling rate                  : 48.0 kHz
Frame rate                     : 46.875 FPS (1024 SPF)
Compression mode               : Lossy
Delay relative to video        : -21 ms
Stream size                    : 77.6 MiB (8%)
Title                          : GOPI SAHI
Language                       : Hindi
Default                        : Yes
Forced                         : No

Audio #2
ID                             : 3
Format                         : AAC LC
Format/Info                    : Advanced Audio Codec Low Complexity
Codec ID                       : A_AAC-2
Duration                       : 1 h 53 min
Bit rate                       : 96.0 kb/s
Channel(s)                     : 2 channels
Channel layout                 : L R
Sampling rate                  : 48.0 kHz
Frame rate                     : 46.875 FPS (1024 SPF)
Compression mode               : Lossy
Delay relative to video        : -21 ms
Stream size                    : 77.5 MiB (8%)
Title                          : GOPI SAHI
Language                       : Tamil
Default                        : No
Forced                         : No

Audio #3
ID                             : 4
Format                         : AAC LC
Format/Info                    : Advanced Audio Codec Low Complexity
Codec ID                       : A_AAC-2
Duration                       : 1 h 53 min
Bit rate                       : 96.0 kb/s
Channel(s)                     : 2 channels
Channel layout                 : L R
Sampling rate                  : 48.0 kHz
Frame rate                     : 46.875 FPS (1024 SPF)
Compression mode               : Lossy
Delay relative to video        : -21 ms
Stream size                    : 77.5 MiB (8%)
Title                          : GOPI SAHI
Language                       : Telugu
Default                        : No
Forced                         : No

Text
ID                             : 5
Format                         : UTF-8
Codec ID                       : S_TEXT/UTF8
Codec ID/Info                  : UTF-8 Plain Text
Duration                       : 1 h 48 min
Bit rate                       : 59 b/s
Count of elements              : 1749
Stream size                    : 47.2 KiB (0%)
Title                          : GOPI SAHI
Language                       : English
Default                        : Yes
Forced                         : No






Post a Comment

0 Comments