Kicking Screaming 2005 x264 720p Esub BluRay Dual Audio English Hindi GOPI SAHI

Kicking & Screaming (2005)

 
Family man Phil Weston, a lifelong victim of his father's competitive nature, takes on the coaching duties of a kids' soccer team, and soon finds that he's also taking on his father's dysfunctional way of relating.
EN

Director:

Jesse Dylan
 
5.6/10
35,797
Directed byJesse Dylan
Produced byJimmy Miller
Written byLeo Benvenuti
Steve Rudnick
Starring
Music byMark Isham
CinematographyLloyd Ahern II
Edited by
  • Stuart H. PappĂ©
  • Peter Teschner
Production
company
Mosaic Media Group
Distributed byUniversal Pictures
Release date
Running time
95 minutes
CountryUnited States
LanguageEnglish
Budget$45 million[1]
Box office$56.1 million[1]

 

Kicking Screaming 2005 x264 720p Esub BluRay Dual Audio English Hindi GOPI SAHI


Format                         : Matroska
Format version                 : Version 4
File size                      : 742 MiB
Duration                       : 1 h 34 min
Overall bit rate               : 1 094 kb/s
Movie name                     : Kicking Screaming 2005 GOPI SAHI
Encoded date                   : UTC 2020-10-14 13:23:28
Writing application            : mkvmerge v46.0.0 ('No Deeper Escape') 32-bit
Writing library                : libebml v1.3.10 + libmatroska v1.5.2

Video
ID                             : 1
Format                         : AVC
Format/Info                    : Advanced Video Codec
Format profile                 : [email protected]
Format settings                : CABAC / 5 Ref Frames
Format settings, CABAC         : Yes
Format settings, Reference fra : 5 frames
Codec ID                       : V_MPEG4/ISO/AVC
Duration                       : 1 h 34 min
Bit rate                       : 899 kb/s
Width                          : 1 280 pixels
Height                         : 544 pixels
Display aspect ratio           : 2.35:1
Frame rate mode                : Constant
Frame rate                     : 23.976 (24000/1001) FPS
Color space                    : YUV
Chroma subsampling             : 4:2:0
Bit depth                      : 8 bits
Scan type                      : Progressive
Bits/(Pixel*Frame)             : 0.054
Stream size                    : 609 MiB (82%)
Title                          : GOPI SAHI
Writing library                : x264 core 157 r2935 545de2f


Audio #1
ID                             : 2
Format                         : AAC LC
Format/Info                    : Advanced Audio Codec Low Complexity
Codec ID                       : A_AAC-2
Duration                       : 1 h 34 min
Bit rate                       : 96.0 kb/s
Channel(s)                     : 2 channels
Channel layout                 : L R
Sampling rate                  : 48.0 kHz
Frame rate                     : 46.875 FPS (1024 SPF)
Compression mode               : Lossy
Delay relative to video        : -56 ms
Stream size                    : 65.5 MiB (9%)
Title                          : GOPI SAHI
Language                       : Hindi
Default                        : Yes
Forced                         : No

Audio #2
ID                             : 3
Format                         : AAC LC
Format/Info                    : Advanced Audio Codec Low Complexity
Codec ID                       : A_AAC-2
Duration                       : 1 h 34 min
Bit rate                       : 96.0 kb/s
Channel(s)                     : 2 channels
Channel layout                 : L R
Sampling rate                  : 48.0 kHz
Frame rate                     : 46.875 FPS (1024 SPF)
Compression mode               : Lossy
Delay relative to video        : -64 ms
Stream size                    : 65.4 MiB (9%)
Title                          : GOPI SAHI
Language                       : English
Default                        : No
Forced                         : No

Text
ID                             : 4
Format                         : UTF-8
Codec ID                       : S_TEXT/UTF8
Codec ID/Info                  : UTF-8 Plain Text
Duration                       : 18 min 11 s
Bit rate                       : 91 b/s
Count of elements              : 384
Stream size                    : 12.1 KiB (0%)
Title                          : GOPI SAHI
Language                       : English
Default                        : Yes
Forced                         : No