Kiss the Girls 1997 x264 720p Esub BluRay Dual Audio English Hindi GOPI SAHI

Kiss the Girls (1997)


Police hunting for a serial kidnapper are helped when a victim manages to escape for the first time.
EN

Director:

Gary Fleder

Writers:

James Patterson (novel), David Klass (screenplay)

6.6/10
64,635

Directed byGary Fleder
Produced by
Screenplay byDavid Klass
Based onKiss the Girls
by James Patterson
Starring
Music byMark Isham
CinematographyAaron Schneider
Edited by
Production
company
Distributed byParamount Pictures
Release date
  • October 3, 1997
Running time
117 minutes
CountryUnited States
LanguageEnglish
Budget$27 million[1]
Box office$60.5 million[1]


Kiss the Girls 1997 x264 720p Esub BluRay Dual Audio English Hindi GOPI SAHI

Format                         : Matroska
Format version                 : Version 4
File size                      : 920 MiB
Duration                       : 1 h 55 min
Overall bit rate               : 1 113 kb/s
Movie name                     : Kiss the Girls 1997 GOPI SAHI
Encoded date                   : UTC 2020-09-30 11:52:19

Video
ID                             : 1
Format                         : AVC
Format/Info                    : Advanced Video Codec
Format profile                 : [email protected]
Format settings                : CABAC / 5 Ref Frames
Format settings, CABAC         : Yes
Format settings, Reference fra : 5 frames
Codec ID                       : V_MPEG4/ISO/AVC
Duration                       : 1 h 55 min
Bit rate                       : 899 kb/s
Width                          : 1 280 pixels
Height                         : 546 pixels
Display aspect ratio           : 2.35:1
Frame rate mode                : Constant
Frame rate                     : 23.976 (24000/1001) FPS
Color space                    : YUV
Chroma subsampling             : 4:2:0
Bit depth                      : 8 bits
Scan type                      : Progressive
Bits/(Pixel*Frame)             : 0.054
Stream size                    : 743 MiB (81%)
Title                          : GOPI SAHI
Writing library                : x264 core 157 r2935 545de2f

Audio #1
ID                             : 2
Format                         : AAC LC
Format/Info                    : Advanced Audio Codec Low Complexity
Codec ID                       : A_AAC-2
Duration                       : 1 h 55 min
Bit rate                       : 96.0 kb/s
Channel(s)                     : 2 channels
Channel layout                 : L R
Sampling rate                  : 48.0 kHz
Frame rate                     : 46.875 FPS (1024 SPF)
Compression mode               : Lossy
Delay relative to video        : -21 ms
Stream size                    : 79.4 MiB (9%)
Title                          : GOPI SAHI
Language                       : Hindi
Default                        : Yes
Forced                         : No

Audio #2
ID                             : 3
Format                         : AAC LC
Format/Info                    : Advanced Audio Codec Low Complexity
Codec ID                       : A_AAC-2
Duration                       : 1 h 55 min
Bit rate                       : 96.0 kb/s
Channel(s)                     : 2 channels
Channel layout                 : L R
Sampling rate                  : 48.0 kHz
Frame rate                     : 46.875 FPS (1024 SPF)
Compression mode               : Lossy
Delay relative to video        : -21 ms
Stream size                    : 79.7 MiB (9%)
Title                          : GOPI SAHI
Language                       : English
Default                        : No
Forced                         : No

Text #1
ID                             : 4
Format                         : PGS
Muxing mode                    : zlib
Codec ID                       : S_HDMV/PGS
Codec ID/Info                  : Picture based subtitle format used on BDs/HD-DVDs
Duration                       : 1 h 54 min
Bit rate                       : 26.0 kb/s
Count of elements              : 2588
Stream size                    : 21.4 MiB (2%)
Title                          : GOPI SAHI
Language                       : Hindi
Default                        : Yes
Forced                         : Yes

Text #2
ID                             : 5
Format                         : PGS
Muxing mode                    : zlib
Codec ID                       : S_HDMV/PGS
Codec ID/Info                  : Picture based subtitle format used on BDs/HD-DVDs
Duration                       : 1 h 51 min
Bit rate                       : 34.9 kb/s
Count of elements              : 2544
Stream size                    : 27.7 MiB (3%)
Title                          : GOPI SAHI
Language                       : English
Default                        : No
Forced                         : No

Menu
00:00:00.000                   : :First Love
00:02:31.151                   : :I'm a Forensic Psychologist
00:07:45.715                   : :Naomi's Missing
00:10:00.225                   : :Megan
00:11:13.756                   : :The Research Triangle
00:19:16.530                   : :Dr. Mctiernan
00:23:37.875                   : :This Guy's A Collector
00:24:59.915                   : :Casanova Declares Himself
00:29:10.207                   : :Not a Clue
00:32:42.752                   : :The Lair
00:36:04.329                   : :Dr. Sachs
00:38:06.367                   : :Never Call Out
00:40:59.958                   : :The Odalisque
00:43:34.320                   : :Escape
00:48:11.097                   : :Kate Recovers
00:53:24.952                   : :Blame Me
00:55:58.438                   : :Hypnosis Session
00:59:20.849                   : :Take Me with You
01:02:31.706                   : :Rudolph
01:07:51.651                   : :Blending In
01:11:04.635                   : :Gone in the Night
01:15:28.858                   : :The Shrine
01:18:48.891                   : :Dr. Sachs Revisited
01:25:22.951                   : :Closing In
01:36:29.867                   : :Saved
01:39:23.791                   : :Tell Me What Truth Is





Post a Comment

0 Comments