Mirzapur 2020 S02 E01-10 x264 720p Esub AmaZoNe Hindi GOPI SAHI

Mirzapur 


A shocking incident at a wedding procession ignites a series of events entangling the lives of two families in the lawless city of Mirzapur.
EN

8.5/10
32,366



Format                         : Matroska
Format version                 : Version 4
File size                      : 355 MiB
Duration                       : 1 h 0 min
Overall bit rate               : 818 kb/s
Encoded date                   : UTC 2020-10-22 16:03:35
Writing application            : mkvmerge v41.0.0 ('Smarra') 64-bit
Writing library                : libebml v1.3.9 + libmatroska v1.5.2

Video
ID                             : 1
Format                         : AVC
Format/Info                    : Advanced Video Codec
Format profile                 : [email protected]
Format settings                : CABAC / 4 Ref Frames
Format settings, CABAC         : Yes
Format settings, Reference fra : 4 frames
Codec ID                       : V_MPEG4/ISO/AVC
Duration                       : 1 h 0 min
Bit rate                       : 740 kb/s
Width                          : 1 280 pixels
Height                         : 720 pixels
Display aspect ratio           : 16:9
Frame rate mode                : Constant
Frame rate                     : 25.000 FPS
Color space                    : YUV
Chroma subsampling             : 4:2:0
Bit depth                      : 8 bits
Scan type                      : Progressive
Bits/(Pixel*Frame)             : 0.032
Stream size                    : 314 MiB (88%)
Writing library                : x264 core 155 r2901 7d0ff22

Audio
ID                             : 2
Format                         : AAC LC
Format/Info                    : Advanced Audio Codec Low Complexity
Codec ID                       : A_AAC-2
Duration                       : 1 h 0 min
Bit rate                       : 93.6 kb/s
Channel(s)                     : 2 channels
Channel layout                 : L R
Sampling rate                  : 44.1 kHz
Frame rate                     : 43.066 FPS (1024 SPF)
Compression mode               : Lossy
Stream size                    : 40.6 MiB (11%)
Default                        : Yes
Forced                         : No

Text
ID                             : 3
Format                         : UTF-8
Codec ID                       : S_TEXT/UTF8
Codec ID/Info                  : UTF-8 Plain Text
Duration                       : 58 min 28 s
Bit rate                       : 41 b/s
Count of elements              : 702
Stream size                    : 17.8 KiB (0%)
Language                       : English
Default                        : Yes
Forced                         : No