Night School 2018 x264 720p Esub BluRay Dual Audio English Hindi GOPI SAHI

Night School (2018)



PG-13 | | Comedy | 28 September 2018 (USA)

A group of high school dropouts are forced to attend night school in hope that they'll pass the GED exam to finish high school.
EN

Director:

Malcolm D. Lee

5.6/10
33,593

Directed byMalcolm D. Lee[1]
Produced by
Written by
Starring
Music byDavid Newman
CinematographyGreg Gardiner
Edited byPaul Millspaugh
Production
company
Distributed byUniversal Pictures
Release date
  • September 28, 2018 (United States)
Running time
111 minutes[4]
CountryUnited States
LanguageEnglish
Budget$29 million[5]
Box office$103.1 million[5]

Night School 2018 x264 720p Esub BluRay Dual Audio English Hindi GOPI SAHI

Format                         : Matroska
Format version                 : Version 4
File size                      : 904 MiB
Duration                       : 1 h 51 min
Overall bit rate               : 1 135 kb/s
Movie name                     : Night School 2018 GOPI SAHI
Encoded date                   : UTC 2020-10-03 08:49:49

Video
ID                             : 1
Format                         : AVC
Format/Info                    : Advanced Video Codec
Format profile                 : [email protected]
Format settings                : CABAC / 5 Ref Frames
Format settings, CABAC         : Yes
Format settings, Reference fra : 5 frames
Codec ID                       : V_MPEG4/ISO/AVC
Duration                       : 1 h 51 min
Bit rate                       : 899 kb/s
Width                          : 1 280 pixels
Height                         : 536 pixels
Display aspect ratio           : 2.40:1
Frame rate mode                : Constant
Frame rate                     : 23.976 (24000/1001) FPS
Color space                    : YUV
Chroma subsampling             : 4:2:0
Bit depth                      : 8 bits
Scan type                      : Progressive
Bits/(Pixel*Frame)             : 0.055
Stream size                    : 714 MiB (79%)
Title                          : GOPI SAHI
Writing library                : x264 core 157 r2935 545de2f

Audio #1
ID                             : 2
Format                         : AAC LC
Format/Info                    : Advanced Audio Codec Low Complexity
Codec ID                       : A_AAC-2
Duration                       : 1 h 51 min
Bit rate                       : 96.0 kb/s
Channel(s)                     : 2 channels
Channel layout                 : L R
Sampling rate                  : 48.0 kHz
Frame rate                     : 46.875 FPS (1024 SPF)
Compression mode               : Lossy
Delay relative to video        : 92 ms
Stream size                    : 76.6 MiB (8%)
Title                          : GOPI SAHI
Language                       : Hindi
Default                        : Yes
Forced                         : No

Audio #2
ID                             : 3
Format                         : AAC LC
Format/Info                    : Advanced Audio Codec Low Complexity
Codec ID                       : A_AAC-2
Duration                       : 1 h 51 min
Bit rate                       : 96.0 kb/s
Channel(s)                     : 2 channels
Channel layout                 : L R
Sampling rate                  : 48.0 kHz
Frame rate                     : 46.875 FPS (1024 SPF)
Compression mode               : Lossy
Delay relative to video        : -21 ms
Stream size                    : 76.6 MiB (8%)
Title                          : GOPI SAHI
Language                       : English
Default                        : No
Forced                         : No

Text #1
ID                             : 4
Format                         : PGS
Muxing mode                    : zlib
Codec ID                       : S_HDMV/PGS
Codec ID/Info                  : Picture based subtitle format used on BDs/HD-DVDs
Duration                       : 1 h 45 min
Bit rate                       : 42.9 kb/s
Count of elements              : 4756
Stream size                    : 32.3 MiB (4%)
Title                          : GOPI SAHI
Language                       : Hindi
Default                        : Yes
Forced                         : Yes

Text #2
ID                             : 5
Format                         : PGS
Muxing mode                    : zlib
Codec ID                       : S_HDMV/PGS
Codec ID/Info                  : Picture based subtitle format used on BDs/HD-DVDs
Duration                       : 1 h 46 min
Bit rate                       : 69.7 kb/s
Count of elements              : 5057
Stream size                    : 52.9 MiB (6%)
Title                          : GOPI SAHI
Language                       : English
Default                        : No
Forced                         : No

Menu
00:00:00.000                   : :Chapter 1
00:04:38.278                   : :Chapter 2
00:08:25.922                   : :Chapter 3
00:13:20.008                   : :Chapter 4
00:19:08.856                   : :Chapter 5
00:26:36.178                   : :Chapter 6
00:29:53.625                   : :Chapter 7
00:37:48.558                   : :Chapter 8
00:41:07.173                   : :Chapter 9
00:46:41.299                   : :Chapter 10
00:49:57.828                   : :Chapter 11
00:58:33.468                   : :Chapter 12
01:04:17.562                   : :Chapter 13
01:11:00.089                   : :Chapter 14
01:15:00.705                   : :Chapter 15
01:21:13.077                   : :Chapter 16
01:29:01.169                   : :Chapter 17
01:33:56.297                   : :Chapter 18
01:39:33.759                   : :Chapter 19
01:46:36.223                   : :Chapter 20





Post a Comment

0 Comments