No Country for Old Men 2007 x264 720p Esub BluRay Dual Audio English Hindi GOPI SAHI

No Country for Old Men (2007)


Violence and mayhem ensue after a hunter stumbles upon a drug deal gone wrong and more than two million dollars in cash near the Rio Grande.
EN

Directors:

Ethan Coen, Joel Coen

Writers:

Joel Coen (screenplay), Ethan Coen (screenplay) | 1 more credit »

8.1/10
835,971

Directed byJoel Coen
Ethan Coen
Produced by
Written by
  • Joel Coen
  • Ethan Coen
Based onNo Country for Old Men
by Cormac McCarthy
Starring
Music byCarter Burwell
CinematographyRoger Deakins
Edited byRoderick Jaynes
Production
companies
Distributed by
Release date
  • May 19, 2007 (Cannes)
  • November 9, 2007 (United States)
Running time
122 minutes
CountryUnited States
LanguageEnglish
Budget$25 million
Box office$171.6 million


No Country for Old Men 2007 x264 720p Esub BluRay Dual Audio English Hindi GOPI SAHI

Format                         : Matroska
Format version                 : Version 4
File size                      : 972 MiB
Duration                       : 2 h 2 min
Overall bit rate               : 1 107 kb/s
Movie name                     : No Country for Old Men 2007 GOPI SAHI
Encoded date                   : UTC 2020-10-02 10:54:12

Video
ID                             : 1
Format                         : AVC
Format/Info                    : Advanced Video Codec
Format profile                 : [email protected]
Format settings                : CABAC / 5 Ref Frames
Format settings, CABAC         : Yes
Format settings, Reference fra : 5 frames
Codec ID                       : V_MPEG4/ISO/AVC
Duration                       : 2 h 2 min
Bit rate                       : 899 kb/s
Width                          : 1 280 pixels
Height                         : 544 pixels
Display aspect ratio           : 2.35:1
Frame rate mode                : Constant
Frame rate                     : 23.976 (24000/1001) FPS
Color space                    : YUV
Chroma subsampling             : 4:2:0
Bit depth                      : 8 bits
Scan type                      : Progressive
Bits/(Pixel*Frame)             : 0.054
Stream size                    : 785 MiB (81%)
Title                          : GOPI SAHI
Writing library                : x264 core 157 r2935 545de2f

Audio #1
ID                             : 2
Format                         : AAC LC
Format/Info                    : Advanced Audio Codec Low Complexity
Codec ID                       : A_AAC-2
Duration                       : 2 h 2 min
Bit rate                       : 96.0 kb/s
Channel(s)                     : 2 channels
Channel layout                 : L R
Sampling rate                  : 48.0 kHz
Frame rate                     : 46.875 FPS (1024 SPF)
Compression mode               : Lossy
Delay relative to video        : -21 ms
Stream size                    : 83.8 MiB (9%)
Title                          : GOPI SAHI
Language                       : Hindi
Default                        : Yes
Forced                         : No

Audio #2
ID                             : 3
Format                         : AAC LC
Format/Info                    : Advanced Audio Codec Low Complexity
Codec ID                       : A_AAC-2
Duration                       : 2 h 2 min
Bit rate                       : 96.0 kb/s
Channel(s)                     : 2 channels
Channel layout                 : L R
Sampling rate                  : 48.0 kHz
Frame rate                     : 46.875 FPS (1024 SPF)
Compression mode               : Lossy
Delay relative to video        : -21 ms
Stream size                    : 83.8 MiB (9%)
Title                          : GOPI SAHI
Language                       : English
Default                        : No
Forced                         : No

Text #1
ID                             : 4
Format                         : PGS
Muxing mode                    : zlib
Codec ID                       : S_HDMV/PGS
Codec ID/Info                  : Picture based subtitle format used on BDs/HD-DVDs
Duration                       : 1 h 55 min
Bit rate                       : 19.8 kb/s
Count of elements              : 2208
Stream size                    : 16.4 MiB (2%)
Title                          : GOPI SAHI
Language                       : Hindi
Default                        : No
Forced                         : No

Text #2
ID                             : 5
Format                         : PGS
Muxing mode                    : zlib
Codec ID                       : S_HDMV/PGS
Codec ID/Info                  : Picture based subtitle format used on BDs/HD-DVDs
Duration                       : 1 h 55 min
Bit rate                       : 25.2 kb/s
Count of elements              : 1940
Stream size                    : 20.9 MiB (2%)
Title                          : GOPI SAHI
Language                       : English
Default                        : No
Forced                         : No





Post a Comment

0 Comments