Paddington 2 2017 x264 720p Dual Audio English Hindi GOPI SAHI

Paddington 2 (2017)

 
Paddington (Ben Whishaw), now happily settled with the Brown family and a popular member of the local community, picks up a series of odd jobs to buy the perfect present for his Aunt Lucy's (Imelda Staunton's) 100th birthday, only for the gift to be stolen.
EN

Director:

Paul King
 
7.8/10
58,717
Directed byPaul King
Produced byDavid Heyman
Written by
Based onPaddington Bear
by Michael Bond
Starring
Music byDario Marianelli
CinematographyErik Wilson
Edited by
Production
company
Distributed byStudioCanal[1]
Release date
  • 5 November 2017 (London)
  • 10 November 2017 (United Kingdom)
  • 6 December 2017 (France)
Running time
104 minutes[2]
Country
LanguageEnglish
Budget$40 million[4]
Box office$228 million[5]


 Paddington 2 2017 GOPI SAHI


Format                         : Matroska
Format version                 : Version 4
File size                      : 779 MiB
Duration                       : 1 h 39 min
Overall bit rate               : 1 055 kb/s
Movie name                     : Paddington 2 2017 GOPI SAHI
Encoded date                   : UTC 2020-10-17 09:27:32

Video
ID                             : 1
Format                         : AVC
Format/Info                    : Advanced Video Codec
Format profile                 : [email protected]
Format settings                : CABAC / 5 Ref Frames
Format settings, CABAC         : Yes
Format settings, Reference fra : 5 frames
Codec ID                       : V_MPEG4/ISO/AVC
Duration                       : 1 h 39 min
Bit rate                       : 899 kb/s
Width                          : 1 280 pixels
Height                         : 534 pixels
Display aspect ratio           : 2.40:1
Frame rate mode                : Constant
Frame rate                     : 25.000 FPS
Color space                    : YUV
Chroma subsampling             : 4:2:0
Bit depth                      : 8 bits
Scan type                      : Progressive
Bits/(Pixel*Frame)             : 0.053
Stream size                    : 637 MiB (82%)
Title                          : GOPI SAHI
Writing library                : x264 core 157 r2935 545de2f

Audio #1
ID                             : 2
Format                         : AAC LC
Format/Info                    : Advanced Audio Codec Low Complexity
Codec ID                       : A_AAC-2
Duration                       : 1 h 39 min
Bit rate                       : 96.0 kb/s
Channel(s)                     : 2 channels
Channel layout                 : L R
Sampling rate                  : 48.0 kHz
Frame rate                     : 46.875 FPS (1024 SPF)
Compression mode               : Lossy
Delay relative to video        : -21 ms
Stream size                    : 68.5 MiB (9%)
Title                          : GOPI SAHI
Language                       : Hindi
Default                        : Yes
Forced                         : No

Audio #2
ID                             : 3
Format                         : AAC LC
Format/Info                    : Advanced Audio Codec Low Complexity
Codec ID                       : A_AAC-2
Duration                       : 1 h 39 min
Bit rate                       : 96.0 kb/s
Channel(s)                     : 2 channels
Channel layout                 : L R
Sampling rate                  : 48.0 kHz
Frame rate                     : 46.875 FPS (1024 SPF)
Compression mode               : Lossy
Delay relative to video        : -21 ms
Stream size                    : 71.3 MiB (9%)
Title                          : GOPI SAHI
Language                       : English
Default                        : No
Forced                         : No